<?xml version="1.0" standalone="no"?>
<!DOCTYPE svg PUBLIC "-//W3C//DTD SVG 1.1//EN" "http://www.w3.org/Graphics/SVG/1.1/DTD/svg11.dtd" >
<svg xmlns="http://www.w3.org/2000/svg">
    <metadata>
        This is a custom SVG webfont generated by Font Squirrel.
        Copyright   : Copyright 1997 International Typeface Corporation All rights reserved
        Designer    : Tony Forster
        Foundry URL : httpwwwitcfontscom
    </metadata>
    <defs>
        <font id="webfontXDyx5W8o" horiz-adv-x="453" >
            <font-face units-per-em="1000" ascent="800" descent="-200" />
            <missing-glyph horiz-adv-x="160" />
            <glyph unicode=" "  horiz-adv-x="160" />
            <glyph unicode="&#x09;" horiz-adv-x="160" />
            <glyph unicode="&#xa0;" horiz-adv-x="160" />
            <glyph unicode="!" horiz-adv-x="176" d="M44 597l3 2l1 12l-1 20v17l-1 1l3 7h2h2q1 3 5 3h1l7 -3q4 6 9 6h1l14 -3l19 2l18 -5l5 -12l-2 -28l-2 -5l2 -8v-53l-1 -5l1 -6v-36l-2 -14l1 -23l1 -42l-5 -6l4 -9l1 -14l-4 -6l2 -9l2 -37l-1 -46v-36l-3 -16l2 -19l2 -32l-3 -18l2 -10v-4l2 -1l-6 -11l-12 -3l-17 2 l-19 -2h-15l-5 2l-5 11v32v33l-1 81l-2 21l3 11l-1 15l-2 16l1 16l1 53l-3 26l2 23l-1 22l2 15l-2 19l1 11l-4 13v20zM49 29h2l1 11q0 5 3 11l-3 4v24q3 0 4 4l8 2v-2l12 3h13l10 -3l20 1l13 -9l-2 -20l2 -3l-2 -4l1 -9l1 -10l-1 -25l-9 -5l-63 1l-8 6l2 10v4q0 4 -4 9z" />
            <glyph unicode="&#x22;" horiz-adv-x="285" d="M37 567q4 4 4 6q0 1 -1 2l-3 14l3 10l-1 2h-2l2 8h-2l2 12l-2 12l2 5l-1 8l2 9l8 6l40 1l5 -1l17 2l3 -6l4 -2l-1 -20l2 -15v-10l1 -4q-3 -3 -3 -6v-2l4 -14l-3 -10v-2h2l-2 -8h3l-3 -12l2 -12l-1 -5l1 -8l-2 -9l-8 -6l-41 -1l-5 1l-17 -1l-2 5l-5 2l1 20l-2 15l1 10z M163 567q4 4 4 6q-1 1 -1 2l-3 14l2 10v2h-2l2 8h-2l2 12l-2 12l1 5l-1 8l2 9l9 6l40 1l5 -1l17 2l2 -6l5 -2l-1 -20l2 -15l-1 -10l2 -4q-4 -4 -4 -6q0 -1 1 -2l3 -14l-2 -10v-2h2l-2 -8h2l-2 -12l2 -12l-2 -5l1 -8l-2 -9l-8 -6l-40 -1l-5 1l-17 -1l-2 5l-5 2l1 20l-2 15v10 z" />
            <glyph unicode="$" horiz-adv-x="447" d="M30 54l8 13l1 10l8 6l5 12l4 5q1 1 1 2h1q2 0 3 4l4 -2l3 1l12 -7l7 -6l11 -2l8 -8l19 -7l12 -2l15 -6l9 -6l11 2l18 -1l3 7q-3 6 -3 10q0 2 3 8l-2 9l1 16l-2 13v18l1 11l2 7l-3 13l1 15v54l2 16v23l2 13l-4 12l3 13l-3 11l3 8l-7 12q-3 6 -4 7t-7 4l-11 6l-4 6l-17 8 l-8 9q-4 2 -7 5l-3 -1l-16 15l-10 5l-5 7l-13 13l-20 27l-9 17l-1 16l-3 5l-1 27l2 7l-1 18l3 8l4 10q1 6 4 6l2 11l9 9l1 3l5 6l5 7l4 4l2 3l9 6l3 4l29 18l16 5l25 4l4 3h14v12l-1 18v1q0 5 4 12l-3 10l8 9l10 2l9 -3l11 2l11 -1h19q1 -1 2 -3l3 -3q2 -2 2 -5v-2v-4v-14 l1 -10l2 -12l15 -5l17 -4l5 -3l6 1l14 -4l10 -1l14 -8l5 -6l2 -10l-1 -24l-4 -8q5 -4 5 -9v-4l-1 -14q0 -6 -6 -6q-4 0 -12 4l-17 12l-10 3l-31 8l-13 -1v-16v-10l2 -14l-4 -12l3 -12l-4 -14l3 -15v-31l-2 -17v-21l2 -17l7 -13l21 -17l37 -27l40 -40l1 -2l10 -11q5 -5 5 -7 q0 -1 -1 -2l8 -7l12 -29l8 -31l2 -5l1 -11l-1 -7q0 -1 3 -6v-5l-4 -16v-2q0 -3 4 -7v-11q0 -4 -7 -8l2 -16l-9 -21l-7 -15l-3 -2l-3 -11l-1 -3q-4 0 -5 -2l-7 -8l-5 -12q-1 -1 -2 -1l-1 -1l-12 -10q-4 -9 -9 -9q-3 0 -4 -1l-15 -14l-9 -2l-3 -3l-15 -5l-8 -3l-1 -1h-2l-9 -1 l-14 -6l-2 -5l1 -13l-1 -12l-2 -10l4 -10l-3 -9l4 -10l-5 -13l-15 -3l-27 1l-16 1h-6l-6 9l-1 14l-2 4l1 9l-1 10l2 14l-2 14l-8 2h-24l-11 5l-32 3l-15 7l-12 3l-14 8l-33 15l-9 11l1 6l-2 1l1 4zM124 523l6 -22l8 -12l13 -9l3 -6l1 -1q1 -1 2.5 -2t3.5 -2l11 -8l11 -9h3 l6 7l-1 12v30v10l-1 28l1 10l-2 10l1 19l-5 8l-13 -2l-17 -5l-10 -8l-9 -9l-8 -9l-2 -14zM262 81l6 -7l14 5q3 3 4 3q2 0 4 -2l6 9h4l8 6l20 24l3 12l2 2l8 25v40l-8 30l-10 17l-10 15l-8 10l-4 5l-13 13l-11 8q-1 6 -8 8l-3 -12v-20l-2 -17v-15v-30l2 -17l-2 -33l2 -14 l-1 -10v-31l1 -16z" />
            <glyph unicode="%" horiz-adv-x="733" d="M20 494v14l3 17l1 15l13 33l14 16l5 16l9 4l5 12l11 5q2 5 4 6l4 1l14 11l16 7l6 2h10l5 5h13l4 5l14 -1l6 2l3 -1l19 1h20l29 -8l22 -9l20 -11l11 -9l3 -6l17 -14l6 -9q2 -1 5 -2q2 -2 3 -4l1 -4l15 -28l4 -17l-3 -5l7 -9l-1 -25l2 -12q-5 -3 -5 -6q0 -2 3 -5l-2 -11 l-8 -32l-11 -24l-7 -7l-6 -14l-14 -11l-4 -8l-11 -11l-27 -13h-4q0 -1 -3 -4q-3 -4 -8 -5l-16 -5l-23 -5l-31 -1l-26 1l-41 12l-15 8l-30 23l-13 11l-1 6l-7 10l-10 10l-5 11v9l-10 15zM92 7l2 2l-1 7l6 8l9 10l8 12l6 3l6 13l2 1l47 70l8 7l7 10l7 12l24 35l6 8l10 8l6 14 l12 15l8 14l27 36l7 9l7 8l9 19l11 11l4 6l4 10l18 23l2 5l9 10v7l9 7l20 26l17 30l7 3l9 18l2 3l11 10l3 9l7 9l8 15l12 15l9 15l6 9l4 3l13 22l9 10l5 13l13 12l12 19l14 9l13 -1l5 1l14 -3l32 1l5 -3l3 -1q2 0 2 -6v-10l-10 -11l-17 -28l-6 -7h-1l-6 -11q0 -2 -3 -3 q-6 -5 -9 -10l-3 -6l-15 -21l-2 -2l-9 -13l-19 -29l-3 -3l-8 -7l-11 -15l-15 -25l-2 -1l-6 -10l-6 -7l-10 -10l-5 -14l-12 -14l-13 -18l-2 -6l-17 -19l-10 -17l-10 -8l-5 -12l-6 -8l-30 -44l-5 -4l-16 -27l-6 -8l-10 -13l-7 -18l-11 -4l-1 -14l-3 -3l-11 -2l-1 -5l-3 -10 l-7 -12l-11 -11l-7 -9l-10 -18l-6 -8l-6 -9l-11 -12l-5 -10l-6 -11q-2 -1 -3 -2v-2q0 -2 -5 -8l-6 -7l-14 -22q-5 -10 -13 -10l-1 1h-2l-2 3q-2 2 -5 1l-10 -4l-23 2l-16 -1l-14 -1zM93 493l6 -32l10 -18l16 -19l3 -2h1l15 -8v-2l3 -4l13 -1l20 -6h17l14 2l16 6l14 9h2 q2 1 4 1l2 4l11 8l4 1l9 14l5 12l5 4l6 38l-4 28l-2 9l-4 -1l-5 16l-10 12l-10 9l-18 12l-19 5l-5 4l-18 1l-11 2l-4 -5l-10 1l-9 -3l-11 -4l-15 -9l-6 -5l-5 -2q-3 -2 -5 -5l-3 -6l-3 -3l-1 -6l-5 -5l-3 -6l-2 -12h-1q-2 0 -4 -11zM369 147l2 10l-1 13l8 31l3 16l7 16l8 15 l10 13v4l10 6l4 8l11 12l6 1l11 9h2l12 8l12 6l25 9h4q2 0 2 1l10 -1l11 4h14h20l16 -2l5 -4l24 -3l10 -8q2 1 6 -1l14 -8l12 -11l6 -3l20 -18l17 -24l6 -16l2 -4l2 -2l4 -14l4 -5l-2 -2h2l1 -8v-11l2 -4l2 -10v-10l-3 -13v-9l-2 -15l-3 -4l-4 -16l-5 -15l-7 -9l-6 -9l-3 -3 l-9 -17l-10 -11l-9 -4l-5 -7l-6 -4l-12 -9l-13 -8l-11 -3l-12 -6l-16 -3l-10 -3l-59 2l-29 8l-10 6l-28 12l-13 10l-14 14l-12 8l-8 19q-5 2 -5 4l-1 5l-12 28l-6 30zM444 167l2 -28l8 -19l8 -15l12 -16l19 -15l14 -6l30 -5l27 3l33 16l12 10l8 9l1 5l2 2l7 8l-2 5l4 9h4 l3 13l2 16v14l-5 20l-8 17l-7 14l-14 15l-12 6l-2 1l-33 11h-29l-15 -4l-12 -5l-16 -8l-12 -10l-8 -8l-7 -12l-1 -8l-6 -3l-2 -6v-11z" />
            <glyph unicode="&#x26;" horiz-adv-x="687" d="M30 277l3 13l-3 4l5 24l6 13l1 16l5 11l7 17v9l9 7l-1 9l13 10l5 8l12 12l7 13l5 4l9 7h3l5 5l7 9h4h4l8 7l8 5l41 13h17l11 2l17 4q2 -5 6 -5h2h6l9 -1l5 3l-5 9l-3 9l-14 25l-21 34l-9 17l-2 10l-9 10l-6 16l-9 15l3 14l18 4l10 -1l14 1l59 -1l11 2h13l10 4l10 -5l20 3 l8 -1l4 1l17 1l6 -10v-16l-1 -4q1 -2 3 -4q1 -2 1 -5l-4 -14l1 -15q-4 0 -8 -6l-15 2l-10 -3l-15 2l-6 -1l-22 1l-10 -3l-5 3l-3 -6l7 -11l4 -12l5 -4l2 -9l7 -10l1 -2l2 -2l2 -8l17 -28l5 -12l13 -20l7 -14l-3 -7l-20 -22l-12 -14l-3 -2l-13 3l-3 3l-15 5l-10 1l-6 4l-6 -2 l-14 4l-6 -1q-2 0 -4 2l-5 -2l-10 -1h-12l-10 -5l-15 -2l-15 -8l-30 -22l-10 -10l-25 -39l-4 -10l-5 -11l-7 -37v-21l1 -24l3 -16l13 -40l6 -12l19 -26l18 -21l10 -10l27 -17l13 -5l13 -6l23 -5l16 -5l12 1l13 -4l16 1l17 2l17 -1l1 2l3 2l15 1l10 2v2l6 -1v2l4 -1l4 7 l12 -1l9 9l14 4l11 8q1 2 3 4q3 3 6 3h3l21 24l9 17h1l7 7l4 18l4 9l2 12l1 15v16l-5 27l-5 17l-15 25l-13 11l-12 10l-20 10l-12 2q-2 -2 -3 -2h-6h-1h-1l-9 5l-15 -2l-20 -4l-22 -6l-13 -11l-5 -4h-3l-11 -17l-7 -19l-2 -22l7 -17l10 -11l16 -11l14 -2q3 3 4 3q2 0 5 -3 h15l8 -10l1 -50l-9 -10l-13 1l-12 -3l-12 4h-13l-17 6l-11 3l-13 8l-7 8l-12 8l-10 14l-10 12l-7 14l-2 11l-4 9v17l-2 6l1 19l3 20l7 17v3l6 9v4q0 4 8 7l7 12l7 9l13 10l5 -1l5 9l10 2l7 7l47 15l20 3l4 2l32 1h10l38 -3l10 -3h1q2 1 3 1q1 1 4 1q5 0 11 -5l39 -4l6 -2 l18 1l8 -1l9 1l11 2l20 5l7 6l13 3l6 7l3 3q2 1 5 7l2 -1l8 9l10 -6l8 -14l9 -12l4 -5l6 -9l2 -15l-1 -3l-13 -9l-7 -8l-22 -14l-9 -3l-9 -5l-17 -2l-5 -4l-11 -2h-2q-4 0 -5 1l-2 2l-13 -1h-12v-1q0 -3 -3 -4l3 -7l10 -18l6 -10l-2 -6l7 -10l-3 -17l7 -8l-1 -16l2 -6 l-4 -34l-9 -34l-10 -26l-17 -29l-13 -13l-8 -11l-3 -5q-9 -1 -10 -11l-11 -5l-5 -4l-1 1q-1 0 -3 -4h-4l-16 -11l-17 -9l-17 -6l-1 -2l-33 -11l-23 -4l-22 -3l-3 -1l-15 1l-19 -4l-35 4l-11 -1l-51 9l-24 8l-44 24l-4 4l-14 11l-32 30l-22 31l-15 31v7l-8 13l-4 21l-6 21 l-3 12z" />
            <glyph unicode="'" horiz-adv-x="159" d="M37 567q4 4 4 6q0 1 -1 2l-3 14l3 10l-1 2h-2l2 8h-2l2 12l-2 12l2 5l-1 8l2 9l8 6l40 1l5 -1l17 2l3 -6l4 -2l-1 -20l2 -15v-10l1 -4q-3 -3 -3 -6v-2l3 -14l-2 -10v-2h2l-2 -8h2l-2 -12l2 -12l-1 -5l1 -8l-2 -9l-8 -6l-41 -1l-5 1l-17 -1l-2 5l-5 2l1 20l-2 15l1 10z " />
            <glyph unicode="(" horiz-adv-x="313" d="M89 319l3 16l-2 17v16l3 32l4 32l2 21l1 1q0 2 1 5t2 5q2 6 3 11l2 21l7 10l2 20l8 18l10 30l5 21l10 15l4 22l14 19l5 20l6 11l12 13l5 17l10 11l15 3l10 -4l6 6l14 -3h2h1h19v-10l-2 -6l-10 -13l-6 -17l-3 -2l-6 -13l-7 -17l-22 -58l-9 -11l-4 -17l-8 -15l-2 -15 q0 -3 -1 -7v-1l-4 -10l-9 -56l-6 -47v-21v-16l-3 -15v-17l1 -2l-2 -33l3 -3l2 -13l-2 -16l3 -21l-2 -21l2 -12q6 -5 7 -18q-2 -2 -2 -3v-3l6 -28l1 -4l2 -7l5 -17l5 -14l5 -24l9 -17l1 -7l2 -10l6 -17l13 -28l5 -8l11 -14l3 -14l11 -8l6 -14l12 -11l-1 -13l-13 -6l-9 4 l-18 -1l-16 1l-15 4l-8 7l-13 20l-14 27l-5 5q-2 4 -4 7l-5 14l-8 13l1 11l-6 3v11l-6 10l-19 50l-21 69l-3 14l1 13l-5 18l-6 44v17v13z" />
            <glyph unicode=")" horiz-adv-x="313" d="M30 717l2 7l9 2l13 2l16 -2l18 2l11 -3l10 -11l11 -18l17 -22l5 -18l7 -9l7 -14l1 -19l2 -2l7 -9l8 -16l10 -30l-1 -5l16 -44l1 -11l7 -29v-12l6 -16l1 -16l8 -25l-2 -10v-11l-4 -12q1 -1 1 -4l1 -2l2 -1l2 -16l-2 -12v-16v-19l-3 -15l-2 -31l-4 -17v-14l-8 -29l-1 -10 l-4 -15v-5l-2 -1l1 -5l-6 -13l-3 -16l-11 -34l-20 -51l-4 -14l-7 -9l-12 -28l-7 -13l-4 -10q-6 -2 -6 -4v-4l-3 -12l-11 -7l-4 -1q-2 -1 -4 -1l-54 1q-2 0 -4 4q-1 1 -1 3t1 3l3 4l5 15l10 12q0 2 -1 4l8 10l5 14l9 16l3 9l2 4l6 16l4 16l8 14l4 2l-1 12l2 10q4 4 4 5v6 l5 13l11 47l6 31l3 11l2 17l3 14l4 22v31l1 7l-1 40l1 18l-6 36v18l1 11l-2 15l-5 16l-6 32l-18 62l-27 73l-3 4l-3 16l-10 9l-4 15l-13 14v6l-9 9z" />
            <glyph unicode="*" horiz-adv-x="315" d="M39 498l21 20l10 3l3 8q1 4 9 4l4 5l2 10l-19 17l-5 6q-3 0 -5 1q-11 2 -16 14l-3 11l6 2l18 26l6 7h14l15 -13l5 -6l7 -7l10 -5q8 5 8 8t-3 7l-3 8l5 13l-3 6l1 13l13 11l15 1l27 -2l6 -6l3 -11l-2 -14l2 -11l-3 -7l1 -2l-1 -10q4 -3 4 -6v-3l6 -1l8 9l3 4l8 2l9 13 l12 5l12 -3l9 -14l9 -13l1 -1v-1q0 -3 0.5 -6t1.5 -5v-2q0 -4 -7 -10l-7 -5l-6 -2l-6 -9l-2 -1q-1 0 -3 -1l-4 -2q-5 -3 -5 -9v-4l9 -7l11 -5l6 -8q1 -1 3 -1.5t3 -0.5l2 -4l10 -8l1 -12l-2 -4l-13 -13l-9 -14l-3 -4l-12 -2l-25 20l-6 5l-11 7l-4 3l-3 -9l-1 -7l4 -8l-1 -28 l1 -4l-5 -6l1 -5l-11 -3l-37 1l-10 5v27q-3 0 -3 2t4 9h-1l-1 5l-1 5l1 10l-2 2h-10l-8 -9v-5l-13 -6l-3 -10l-18 -4l-7 7l-9 10l-4 3l-10 13z" />
            <glyph unicode="+" horiz-adv-x="485" d="M63 258v75h143v188h75v-188h142v-75h-142v-185h-75v185h-143z" />
            <glyph unicode="," horiz-adv-x="180" d="M17 -16q-1 1 4 6l13 11l6 8l4 6l9 7l2 25l-4 33l2 15l8 6l17 -3l5 3l25 -2l13 3l14 -1l4 -11l-1 -41l3 -17v-16l-7 -12v-1l-29 -31l-2 -1l-6 -7l-21 -22l-4 -6l-13 -2l-10 9l-18 19l-13 12q-1 1 -1 2v8z" />
            <glyph unicode="-" horiz-adv-x="287" d="M35 309v15l3 3l-2 4v11l2 3q-1 1 -1 2l-2 13l15 8l10 -3l39 4l7 -2l21 3l19 -2l13 3l15 -2l10 2l12 -2l7 2l2 -2l24 2l18 -1q2 0 2 -1l3 -2l-2 -11l3 -15v-13l-4 -9l3 -16l-3 -4l-11 -2l-35 1l-10 1l-6 -2l-13 1l-25 -2l-44 2l-12 -2l-17 -1v3l-3 -1l-33 -1z" />
            <glyph unicode="." horiz-adv-x="170" d="M40 77l3 14l3 5l29 3l12 -5l5 2l33 1l5 -9l-1 -11l-2 -18l2 -13l2 -20l-1 -3v-7q0 -9 -7 -9q-3 0 -4 1l-21 -1h-11l-4 1q-1 1 -4 1h-6l-17 -1h-11l-3 16l2 1v17l-2 12l2 12z" />
            <glyph unicode="/" horiz-adv-x="408" d="M20 -45l4 9l5 9l4 12l5 4l1 12l2 1l11 26l3 12l5 13l2 6l5 9v5l13 31l6 24l4 6l14 36l6 18l3 18l6 6l3 11l2 12l13 34l3 9l7 8l1 14l7 14l3 15l15 36l4 9l4 8l3 18l6 12l3 6l1 9l9 24v5l6 9l-1 7l6 7l10 27l8 30l5 2l3 18l1 4l8 10v8l4 9l3 15l6 15l4 15l2 10l4 3l5 22 l5 10l2 12l9 12l5 20l11 9l9 -1l4 1l16 -3l32 1l6 -3l3 -1q3 -3 4 -6l3 -10l-6 -12l-7 -27l-4 -7h-1l-2 -11l-2 -4q-4 -3 -6 -9l-1 -6l-7 -21l-2 -2l-4 -13l-10 -29q0 -1 -0.5 -2t-0.5 -2l-5 -7l-6 -15l-7 -24l-2 -2l-3 -9l-3 -7l-6 -11v-13l-8 -14l-7 -19v-5l-10 -19 l-4 -18l-8 -7v-12l-4 -8l-15 -44l-3 -4l-6 -28l-4 -7l-6 -14l-1 -17l-9 -4l3 -14l-2 -3l-10 -3l1 -4v-10l-2 -12l-8 -12l-4 -8l-3 -18l-4 -8l-3 -10l-6 -11l-5 -18l-8 -18l-3 -9l-4 -9l-7 -18l-5 -18l-6 -17l-7 -18l-3 -9l-3 -9l-2 -11q0 -1 -2 -3q1 -1 1 -3t-2 -6l-4 -8 l-6 -22q-4 -9 -10 -9q-3 0 -3 1l-4 2q-1 3 -5 1l-9 -4l-23 3l-12 -2h-14l-10 9l1 1z" />
            <glyph unicode="0" horiz-adv-x="485" d="M20 294v11l2 12l-1 16l2 51l7 55l3 18l4 14l1 11l17 47l11 24l8 15l20 27l10 11q5 5 21 16q0 6 5 8l15 8l9 -1l2 7l17 8l29 8l30 3l17 1l16 -3l10 3l28 -6l18 -5h1l17 -7l26 -15l11 -13l15 -7l6 -14q9 -5 9 -9v-1l-2 -12l3 2l8 -8l7 -14l20 -49l7 -30l4 -19l1 -15l4 -6 l-1 -10l4 -4l3 -35l-2 -16l2 -3v-10l-2 -15l3 -18l-3 -89l-2 -21l-5 -12l-4 -5l3 -4l1 -10l-6 -8l-2 -14l-11 -34l-17 -33l-10 -15l-2 -1v-2l-8 -12l-12 -12l-9 -5l-13 -15l-28 -15l-15 -8l-33 -8l-28 -4l-10 -2l-8 4l-13 -3l-48 6l-11 5l-17 6l-10 6l-12 5l-12 12l-8 3 l-10 18l-3 2l-9 7l-2 14l-10 3l-5 5l-16 29l-5 15l-10 27l-1 11l-5 11l-2 6v15l-2 11l-5 7v7l1 14l-5 10l-2 26zM101 319l3 -43l5 -29l2 -25l12 -47l8 -14v-7l5 -4q3 -2 3 -4v-1l-1 -2l6 -10l9 -5l-1 -5l4 -10l10 -12l12 -7l10 -8l5 -1q1 0 3 -3l38 -10h13l1 1h7l12 1l13 5 l6 6l8 -2l6 4q1 1 4 1v6l15 5l7 8l9 8l16 24l5 15l4 5l15 54l3 35l6 22l1 75l1 16l-3 10l1 14l-12 65l-6 29l-11 26l-3 14l-8 16l-12 11l-4 10l-4 2l-3 6q-5 -1 -9 6l-32 15l-28 4l-12 -1q-5 0 -5 -4l-6 2l-13 -4l-23 -9l-19 -13q-12 -10 -16 -16l-19 -26l-7 -14l-17 -54 l-2 -14l-9 -67l-1 -13z" />
            <glyph unicode="1" horiz-adv-x="149" d="M30 618l2 4v20l2 15l14 4l9 -1h19l27 1h4l8 -7l1 -32l3 -20l-3 -11l1 -15l-2 -18l1 -16l2 -10l-4 -32v-16l2 -26l-4 -17l4 -19l-2 -16l1 -22l1 -4l-2 -15l1 -13l-2 -15v-36l2 -28l-1 -17l-3 -14l8 -16l-1 -5l-3 -10l1 -18v-13l3 -12l-2 -20l3 -11l-6 -15l3 -4l2 -14 l-3 -16l2 -33v-47l-3 -3l-17 -7l-38 1l-16 2l-7 6l-2 21l3 29l-3 13l2 12l-3 9q3 7 3.5 10.5t-0.5 14t-1 22.5l-3 15l1 7v4l-1 55l1 31v50v20v58l-2 8l2 15l2 20q-2 4 -2 9l-1 12l2 7l-4 16l2 18l3 10l-4 11l1 11l2 14l-2 18v45z" />
            <glyph unicode="2" horiz-adv-x="382" d="M-10 7l4 6l9 16l2 11l10 11l3 11l12 14l8 11l4 12l10 12l5 14l34 59l31 45l22 37l1 6l10 9l6 24l6 4l9 12l6 14l17 28l6 17l11 12l1 11l15 26l10 32l5 27l4 10l1 3q0 2 -3 5v12l-5 24l-3 6l-16 19l-23 12l-10 5l-7 -1l-10 3l-14 -1l-11 1l-27 -3l-45 -11l-9 -3 q-2 0 -5 -1h-3l-11 -5h-6l-6 10l3 16l-2 7l2 16v28l3 3l11 6l14 1l4 1l10 2l17 6l21 -2l20 7l18 -3l24 2l34 -3l21 -8l10 2l13 -6l22 -13l8 -9l4 -2q4 -1 6 -7l4 -8l8 -8l4 -10l2 -3l12 -37l-1 -27l2 -11l-1 -10l-2 -27l-10 -38v-6l-6 -11v-13l-9 -10l1 -5l-6 -14l-9 -18 l-7 -15l-42 -69l-4 -10l-9 -15l-4 -2l-5 -15l-11 -16l-9 -16l-4 -9l-13 -20l-1 -7l-5 -4l-10 -12l-32 -59q-1 -2 -1 -6q0 -5 2 -8l43 -2l15 3l21 -1l12 -4l15 2l19 -1l29 3h21l17 -2l5 -9l-3 -14l1 -34l3 -5l-3 -10l-8 -7h-35l-28 2l-3 2h-2h-2l-4 -2l-14 -1l-19 3l-24 -3 l-10 3l-13 2l-15 -3l-10 2l-5 -3h-17h-16l-36 -1l-19 2h-39l-6 -2q-1 -1 -3 -1q-6 0 -12 10z" />
            <glyph unicode="3" horiz-adv-x="355" d="M20 27l4 5l-4 14l5 13q-3 3 -3 6q0 6 8 6l33 1l17 -2h9l15 5l9 -2l25 3l33 11l21 15l20 19l1 6l5 4l8 9l12 30l7 31l1 19l-2 5l-1 31l-7 25l-6 11l-5 14l-9 12l-11 15l-4 3l-3 3l-14 12l-14 9l-12 4l-31 11l-2 3l-13 -1l-15 5l-14 2l-31 2q-17 1 -17 6v12v16v11l-1 7v6 q0 5 2 7l7 6l21 2l16 2l8 3h7l17 5l27 14l15 21l4 11l3 15l-2 16l-3 14l-6 4v6l-10 6q-1 4 -3 4l-3 -3l-8 7l-5 2l-3 1l-6 -1l-4 1q-1 0 -2 -1l-9 3l-13 -4l-13 -2l-19 -6l-15 -6l-9 3v18l-2 13v4l-4 12l3 7l-1 11v2q0 10 13 12l25 5l35 5l19 -2h17l30 -7l3 -3l18 -8l14 -7 l11 -10l18 -23l8 -14l8 -30v-17l-2 -8v-4v-17l-6 -10l-1 -11l-17 -25l-6 -9l-10 -9l-15 -9l-2 -7l10 -6h8l13 -8l10 -2l12 -13l8 -2q3 -3 3 -4l2 -4l6 -5l8 -7l5 -9l11 -5l2 -8l8 -10v-3l10 -15l14 -30l6 -19h-2l1 -6l4 -10l2 -46l-2 -17v-24l-5 -15l-2 -15l-5 -15l-7 -15 l-17 -30l-3 -6l-6 -7q-1 0 -2 -4l-2 -2q-1 -2 -2 -3l-3 2l-3 -7l-3 -1l-12 -16l-13 -6l-5 -6l-11 -3l-5 -7l-12 -2l-5 -4l-18 -4l-17 -7l-22 -1l-22 -5l-64 -3l-20 1l-13 5l-3 12z" />
            <glyph unicode="4" horiz-adv-x="364" d="M23 374l1 10l5 10l-4 3l1 10l-3 15l2 8l-1 22l1 38l1 30l-3 48l3 14l-3 13l3 13l-3 11v14l2 16v4l7 9h8l22 -4l12 3l11 -2l8 1l11 -6l1 -30l-1 -76l-1 -11l2 -12l-2 -14l1 -32l-2 -1l1 -18l2 -8h26l5 -2l12 5l7 -5h14q4 0 6 5h2l2 4v58l1 15l-3 13l2 17l-1 16l-2 81l2 1 q4 3 6 3l11 -3v3l6 -2l5 1l12 -1l12 1l10 -3l15 -1l3 -11l-2 -11l1 -17l-3 -11l4 -13l-3 -30l2 -11q-2 -3 -2 -6t1 -6l2 -8l-1 -28l-3 -4l3 -21l-3 -5l1 -4l-1 -14q0 -1 6 -7q4 -2 7 -2q2 0 3 1l3 2l19 -2l4 1l8 -1l8 -1l16 1h1q14 0 14 -7l1 -31l-2 -6l-2 -11l3 -7l-2 -14 l-11 -3l-11 2h-11l-12 -1h-7h-1q-4 0 -9 1h-2l-16 -2l-1 -14l-1 -16l2 -15l1 -10l-3 -6v-31l2 -17l-3 -13l3 -9q1 -2 1 -5t-1 -4l-2 -6l1 -6v-17v-42l2 -24l-1 -17l1 -40v-31l1 -39v-5l-12 -5l-29 1q-1 1 -4 1q-4 0 -8 -4l-3 2l-10 5l-13 -6l-4 6l1 11l-4 4l2 15l3 15v4 q0 6 -4 6h-1l4 14l-2 18l2 41v40v93l-2 22l1 3l-1 27l2 5l-1 16l2 18l-4 11l-8 4l-16 1h-8l-3 -1l-11 -1h-30l-11 -2l-11 4l-19 -2l-5 2l-28 -1z" />
            <glyph unicode="5" horiz-adv-x="381" d="M26 51v19l7 6l7 -2l18 4h11l14 6l5 1l13 5l6 1q3 0 4 2l3 3l16 6l2 4l16 13l18 13l9 12l23 23l5 6l7 7l3 7l12 15l7 15l10 14l6 14l5 22l5 10l2 19l4 15v18l1 25l-1 5l-7 10l4 13l-7 4l-2 11l-8 3l-4 12l-11 7l-1 3l-11 4l-18 6l-32 4l-35 -5l-44 -12l-28 -14l-12 -2h-6 l2 5l-6 2l-5 12l4 7l-3 10l2 20l-1 34l2 11l-1 17l2 11l-4 20l5 25l-5 16l3 18l-2 17l-1 20l1 7l9 4h14l6 -2l11 4l20 -1l27 -3h29l15 -1l9 2l37 1l16 -1l11 -12l-5 -18l1 -11l-3 -12l2 -13l-1 -5l-4 1l-38 -1h-26l-10 -3q-4 4 -9 4h-1l-5 -5l-19 4l-5 -2l-7 -8l1 -13l-1 -4 q0 -1 2 -5l-2 -41l-2 -6l4 -9l18 7l11 1l5 2l18 1l21 2l33 -3l31 -11l21 -9l12 -12l7 -4l10 -11l18 -19l18 -38l7 -18l2 -28l4 -14v-15l-2 -26l-3 -8l-1 -19l-4 -11l-4 -5v-13l-10 -19l-16 -39l-30 -43l-8 -14l-22 -24l-57 -53h-3v-3l-4 -3l-15 -10l-9 -8h-6l-7 -5l-16 -10 l-16 -4l-13 -6l-17 -4l-23 -3l-10 -2h-14l-5 2l-4 8z" />
            <glyph unicode="6" horiz-adv-x="438" d="M30 218l2 24l-1 14l2 16l1 25l3 16l3 3l7 32l5 14l3 5l2 12l3 11l8 18l6 12l5 14l13 26l11 23v2q1 0 2 1q2 0 3 4l8 16l6 12l11 14l8 16l1 12l12 8l1 8q0 3 7 8q5 5 6 7l4 11q1 1 2 3l4 6l5 4q1 1 2 4l8 15l7 6l7 11l15 8l4 1l15 -1l21 1l4 1l38 1q8 0 9 -16l-4 -3 l-12 -16l-9 -7l-2 -1l-5 -9l-2 -3l-2 -2l-7 -9h-5l-10 -15l-6 -4q0 -8 -3 -11l-8 -11l-9 -9l-4 -16l-12 -11l-3 -11l-8 -9l-5 -15q-7 -4 -7 -5l-3 -8l-12 -19l-4 -10l-23 -45l-16 -43v-12l-10 -19v-16l-5 -7l-2 -30l-2 -11l1 -41l2 -32l10 -29l8 -19l4 -8h2l1 1q2 0 7 -8 l3 -8q1 -6 11 -6l6 -9l2 -4l16 -6l13 -10h14l2 -2h5l33 -2l38 13l13 8l11 8l-1 4l2 3l10 8l8 15l3 12v2l4 8q0 1 -1 1q-4 4 -4 7l2 6l-6 15l-8 12l-12 10l-12 7h-12l-11 -1l-17 -2l-11 -7q-1 -3 -4 -3q-1 0 -1 0.5t-1 0.5l-15 -16l-3 -1l-2 -1q-3 4 -6 4h-3l-13 17l-7 9 l-4 8l-4 11l1 12l6 9l20 15l14 8l17 6h5l11 5l13 3h19l33 -3l12 -3l2 -2l13 -6h4l16 -10l5 -4l10 -13l9 -5l3 -7l6 -11l10 -29l-1 -11l3 -6l1 -32l-5 -27q0 -3 -3 -7l-3 -13l-7 -16l-4 -7l-2 -4l-7 -11q-5 -1 -7 -7l-1 1q-2 0 -4 -5q-5 -2 -7 -7q-4 -4 -6 -7h-2l-12 -9 l-10 -5l-10 -8l-12 -5q-2 -2 -6 -2l-15 -4l-5 -3l-15 -3l-20 -3h-32l-26 4h-8q-7 2 -7 4l-1 1l-9 3h-9l-13 4l-1 5l-12 2l-17 12l-15 13l-8 5l-9 10q-1 2 -3 3q-1 1 -3 3.5t-3 3.5l-6 11l-3 7l-13 13l-8 28l-7 15l-3 9v12l-7 25l-1 17z" />
            <glyph unicode="7" horiz-adv-x="406" d="M20 586l2 12l-1 13l2 9l-1 22q0 7 3 9v3l9 2l12 -2q3 0 7 1l11 3l16 -4l14 4l17 -3l13 6l18 -3h15h14l4 1l21 -4l15 5l40 -2l47 2l19 2l10 -6q2 -2 6 4l6 3l13 -3l42 1l5 -1l8 -9v-4l-9 -18l-2 -13q-1 0 -2 -1q0 -1 -2 -4l-4 -11q-1 -1 -2 -3q-4 -3 -4 -6q0 -1 2 -7 l-8 -7l-18 -47l-2 -2l-5 -16l-5 -10l-22 -60l-9 -24l-3 -9l-8 -12v-5l-11 -18v-3l-5 -17l-8 -12l-5 -15l-7 -11l-11 -29l-8 -12v-3q0 -4 -5 -14l-7 -13l-4 -14l-13 -27l-32 -72l-6 -15l-8 -17l-4 -3l-1 -7l-8 -15l-6 -16l-3 -10l-3 -1l-7 -19l-9 -18l-9 -12l-19 -1l-34 1 l-15 -2l-14 1q-5 0 -5 8q0 2 1 3l11 15l21 46l9 17l15 34l11 26l7 10l8 15l1 8l9 15l5 19l8 12l4 14l8 8l6 16l21 53l18 37l22 50l6 13l1 4l27 67l14 32l6 17l1 6l6 7l-1 11l8 11q-4 8 -8 8h-2l-5 -1h-15l-16 2l-3 -2l-16 2l-8 -2l-15 2l-22 -3l-15 2l-1 -1l-8 1l-15 -2 l-6 2l-24 -2l-5 3l-10 -5l-6 3l-10 -5l-19 4l-16 -2l-9 2l-7 -2q-2 0 -2 1q-7 3 -7 9z" />
            <glyph unicode="8" horiz-adv-x="445" d="M20 191v2l3 5l1 10l-1 17l5 28l2 2l9 26l8 15l23 32l10 9l6 4l1 4l4 1l7 6l14 11l18 9l6 3l19 6l17 3l10 5l-1 14l2 16l-15 9h-10q-4 0 -8 2q-1 1 -4 1.5t-5 0.5q0 2 -1 4v1l-6 3l-12 9l-11 6l-7 15l-9 14l-5 13l-5 5l-1 4l1 17l-4 14l1 12l3 6l-4 3l2 11l4 8l4 14l5 13 l5 5l6 11l17 18l15 10l7 5l35 10l30 3l3 1l4 -2l5 1h12l17 -3l33 -12l14 -8l12 -11l8 -13l1 -3l7 -7l12 -26v-6l6 -9l1 -39l-3 -15l-7 -22l-11 -22l-16 -19l-8 -7l-11 -6q-3 -5 -6 -5q-2 1 -3 2l-2 -2l-11 -5l-17 -4v-17l1 -12l1 -4l11 -7l11 -1l2 2l1 -1l26 -10l3 -2l6 3 l16 -10q7 -5 8 -7l1 -1l18 -10l9 -8l1 -6l19 -13l8 -11l4 -12l5 -2l13 -33l6 -33l4 -29l-4 -11l4 -3l-5 -31l-9 -35q-1 -4 -4 -5v-4l-7 -15l-2 -7l-16 -23l-19 -24l-7 -1l-2 -4l-10 -8l-6 1l-7 -6l-15 -8l-16 -6h-7l-19 -8h-18l-14 -2l-22 -2l-33 4l-4 -2l-6 4l-32 8l-15 5 l-14 7l-10 10l-10 1l-8 13l-5 3l-10 8l-6 10l-12 11l-5 13l-15 26l-3 17l-7 14l-4 30l2 4q-3 4 -3 7zM103 181l4 -11l-1 -12l4 -9l12 -26l4 -3l11 -11l2 -5l16 -10l18 -9l17 -6l36 -3l17 2l7 -2l8 8l18 1l12 4l8 8l6 2l10 10l6 4l4 6l4 5l13 27l5 17l1 18l-2 11l2 15l-3 21 l-8 19l-8 15l-10 14l-10 9l-13 8q-2 2 -8 2l-14 10l-15 2l-12 3l-8 -1h-28l-17 -2l-18 -6l-19 -9l-8 -9l-7 -6q-2 -3 -4 -3v-2l-10 -12l-7 -10l-8 -17l-7 -32l2 -20zM155 534l5 -3l-1 -12q0 -3 9 -6v-3l5 -9l8 -7l13 -7l17 -2l22 1l4 2l12 5l14 14l9 19l3 22l-3 19l-8 12 l-10 9h-5l-2 6l-16 5l-11 3h-11h-2l-19 -5l-15 -8l-8 -12l-6 -9l-2 -9z" />
            <glyph unicode="9" horiz-adv-x="431" d="M20 481l4 16l-4 7l1 14l4 22l5 16l6 14q3 7 6 10l2 2l7 17l10 12l8 5l6 9l13 8l3 6l14 4l8 8l7 1l15 5l8 5l12 2h9q0 1 1 2q1 2 6 3l15 -2l30 1l34 -2l14 -6l10 -1l48 -24l25 -23l7 -12l9 -7l4 -10l6 -7l3 -7l6 -10l12 -30l2 -19l2 -5l4 -48l-1 -25l-3 -29l-4 -16v-5h-2 v-19l-6 -14l-4 -14l-7 -14l-2 -10l-4 -4l-1 -11l-10 -9l-2 -16l-6 -8l-6 -16l-14 -26l-6 -7l-7 -14l-3 -3l-11 -19l-6 -2l-24 -35h-4l-25 -30l-14 -14l-28 -32l-39 -34l-3 -4l-13 -7l-11 -12l-17 -8l-4 -4l-10 9l-13 16l-4 2l-1 7l-7 6l-2 8l-7 9l1 5l7 8l13 9l19 15l7 9 q6 0 10 7q1 2 4 5l26 23l11 12l56 60l43 65l25 56l9 22l15 57l-1 5l1 10l4 7l-4 12l5 10l-2 16l1 11l-5 15l-3 21l-14 26l-5 13l-22 21l-13 9l-17 7l-11 4l-15 2l-32 -2l-25 -8v-4h-12l-11 -10l-5 -1l-7 -9l-4 -10h-3l-7 -9l-3 -12l-3 -11v-11l-2 -4l1 -16l7 -24h1l9 -16 l4 -2l10 -7l12 -5q5 -3 18 -4l10 -1l33 11l11 10l5 2h11l2 -6l5 -3l5 -10l9 -8l7 -15v-11l2 -2l-6 -12l-13 -10l-15 -8l-11 -6h-2h-4l-9 -6l-15 -4h-14l-6 -1l-38 1l-16 6h-6l-4 4l-4 1l-16 6l-4 9l-11 1l-10 11l-1 3l-16 22v6l-9 12l-9 21l2 17z" />
            <glyph unicode=":" horiz-adv-x="180" d="M39 284l5 9h-1v5v16l3 9l8 5l14 2h19l8 1l19 -1l13 1l8 -6v-25v-24l2 -12v-14l-5 -7l-16 -3h-34h-18l-15 3q-2 3 -7 6l2 15l1 9zM47 71l6 16l4 4l21 -1h43l13 -2q1 -2 4 -3v-12l-1 -7q0 -1 3 -4l-2 -1l3 -10l-4 -11l2 -4l-2 -32l-10 -5l-26 -1h-18h-24l-11 7v7l1 1l2 27 l-1 4l1 10l1 1v2t-0.5 3t-0.5 3z" />
            <glyph unicode=";" horiz-adv-x="180" d="M11 -13l24 22l12 17l3 11v9l-2 14l2 14l-3 11l8 11l4 2l12 -1l5 1l6 1q1 1 3 1l17 -2l26 1q4 1 6 -5l3 1l-1 -7l2 -24l-1 -5l2 -12l-3 -9l3 -6v-15h2l-2 -1l-9 -15l-25 -25l-13 -15l-7 -8l-19 -16l-7 -4l-10 3l-15 18l-8 10l-13 11zM48 296l1 31l2 4h11l6 -2h3l17 5 l20 -2h11l13 -2l4 -6l2 -28l-1 -28l2 -19l-3 -8l-11 -1h-28l-20 -3l-21 3q-1 0 -5 2l-1 1l1 8l-1 25z" />
            <glyph unicode="&#x3c;" horiz-adv-x="485" d="M71 263v61l344 175v-80l-250 -125v-2l250 -124v-80z" />
            <glyph unicode="=" horiz-adv-x="485" d="M63 148v75h360v-75h-360zM63 368v75h360v-75h-360z" />
            <glyph unicode="&#x3e;" horiz-adv-x="485" d="M71 88v79l250 125v2l-250 125v79l344 -174v-61z" />
            <glyph unicode="?" horiz-adv-x="364" d="M20 638l29 10l15 5h5l12 5h10l3 2l22 2h7l4 2l12 -1l4 -3l5 4l26 1l15 -2l25 -3l16 -5q1 -1 3 -1q4 0 6 -2l15 -7l4 -6l13 -2l15 -9l10 -10l10 -6l9 -14l11 -14l5 -15l6 -9l1 -7l1 -3v-11l5 -8l-3 -2l3 -12l-1 -28q-5 -5 -5 -7t3 -6l-2 -5l-2 -10l-4 -5l-3 -12l-4 -3 l-8 -18l-3 -3l-15 -21l-24 -25l-14 -9l-31 -31l-50 -39l-9 -10l-14 -13l-2 -8l-5 -4l-2 -7l-4 -4q0 -4 -1 -9l-1 -9l4 -13q2 -4 9 -8l4 -2l13 -3h27l18 5l13 3l10 -6v-6l6 -17v-18l4 -16l-5 -10l-14 -1l-8 -7l-12 3l-5 -5l-9 1l-11 -4l-38 3l-20 5l-23 13l-8 9l-12 7l-6 12 l-6 8l-1 2l-2 7l-3 5v10l-5 5l1 9l-1 17l3 23l5 14l10 20l5 3l8 16l7 10l4 2l4 7l12 9l8 9l9 4l7 11q7 0 8 1l5 7q2 5 13 5l6 12q9 4 14 9l10 7q3 3 7 9l1 2l11 5l10 13l12 9l17 24v4l3 9l5 17l-1 14l-6 10l1 10l-9 7q0 12 -5 14l-7 3l-7 12q-8 0 -10 2l-4 4l-21 8 q-4 -2 -6 -2t-6 2l-4 2l-10 2l-17 2l-34 -3l-19 -5l-15 -2l-15 -5l-5 2q-3 -6 -5 -6q-1 1 -3 1v-2l-4 -3l-20 -2l-4 8l2 4l-3 7l-6 15l-2 14q3 3 3 4q0 2 -4 6zM135 49v24l5 6l9 5l19 -2l12 2l30 -1q11 0 13 -7v-10v-16l1 -13l-2 -25l-1 -4l-13 -10l-4 -2l-13 3l-24 -2l-9 4 l-11 -4l-7 3l-3 13q-1 4 -1 8v2l3 9v3v4z" />
            <glyph unicode="A" d="M10 12l7 48l17 71l4 10l1 21l7 19l6 11l-2 15l9 34l8 38l17 56l3 20l10 38l2 17l9 17v11l23 89l-1 6q0 1 3 4l5 16l7 19v15l8 14v14l8 15l3 18l3 6l16 7l18 -1l17 3l18 -4h2l17 3l18 -7l7 -17l8 -26l22 -75l6 -13l3 -17l7 -14l8 -38l8 -21l5 -29l5 -12l3 -19l5 -13l2 -14 l6 -16l2 -15l9 -31v-7l4 -12l2 -15l4 -9v-15l8 -13l18 -83l5 -13l5 -19l3 -18q0 -3 2 -7q1 -3 2 -6.5t1.5 -5t0.5 -2.5l1 -16l8 -33l-6 -10l-13 -1l-5 -1l-15 2h-38l-9 4l-1 3l-2 11l-3 2l1 31l-6 17l1 14l-7 22l-27 117l1 12v7q0 6 -6 8l-5 21l-1 13l-6 16l-4 26l-3 10 l-3 5l-20 2l-29 3l-19 -3l-20 2l-15 -1l-10 1l-7 -3l-6 -9l-18 -71l-8 -42v-7l-10 -37l1 -2l-2 -20l-4 -9l-1 -22l-8 -17l-1 -20l-9 -34l-3 -45q0 -1 -4 -3q-8 -2 -9 -4l-15 2l-2 1q-2 0 -3 -2h-1q-1 -1 -2 -1l-3 3l-13 -2l-10 2l-15 -3l-8 5zM178 401q0 -6 4 -6l5 1h11 l7 -4l16 5l38 -1l9 4l-1 16l-2 4l-17 5l-12 -3l-16 1l-17 -3l1 4l-16 -2l-8 -8zM192 477l2 -5h18l11 -2h12l19 4l-3 15l-21 72l-5 23h-4l-7 -27l-5 -23l-5 -15l-8 -31z" />
            <glyph unicode="B" horiz-adv-x="406" d="M30 580l3 33l-1 3l1 18l4 16l3 3l16 8l6 1l15 -1l7 2h14l13 -4l4 2l2 2l9 -1l24 1l21 -3h29l29 -2h5h5l11 -7h9l6 -5l14 -5l22 -21l2 -4q0 -2 4 -2l9 -14l4 -14l4 -6l-1 -4l4 -15l-1 -12v-17l-3 -12l-2 -11q-2 -9 -6 -13l-4 -4l-7 -14l-7 -9l-27 -22l-7 -6l2 -3v-6l3 -3 l2 -2l15 -14l12 -12l13 -16l7 -6l12 -19l12 -18l10 -12l6 -14v-4l4 -5l4 -12l8 -16l11 -56l1 -7l1 -16v-8v-11l-2 -16l-5 -19v-7l-9 -23l-4 -1l-2 -11l-24 -31l-19 -21l-10 -2l-7 -9l-14 -6l-4 -6l-8 -2l-8 3l-1 -6l-14 -6l-15 -6l-11 2l-10 -7l-14 -3l-26 -3l-57 -3l-17 1 l-15 1l-15 -1l-10 2l-7 2q-1 -1 -3 -1q-4 0 -6 1l-7 4l-5 7l-1 15l-1 58v12q2 2 2 4l-2 4l1 36l2 11l-2 16l3 16l-5 12l2 22l-1 18l1 15v14l1 11l-3 6v3l1 40l-1 13l3 14l-3 15l2 15l1 5l-3 112l2 20l-4 18l6 15l-6 13l2 12zM108 517q0 -3 1 -4l4 -8l-1 -41l3 -16l9 -3l3 1 l13 4l14 6l6 -1l9 7l16 11l13 4q2 2 2 3t-1 2l25 15l16 18l2 2l5 10l2 8l-2 19l-5 4l-3 10l-10 9l-32 5h-16l-15 4h-44l-10 -4l1 -58zM111 190l7 -10l-3 -17v-38l-1 -14l-1 -4l3 -2l-2 -14l1 -12l4 -4l16 -5l24 -1l10 3h10l29 8l14 5h8l13 7l1 4h2l10 7l6 -1q1 1 2 3l11 14 l10 9l17 33l5 29l-1 26l-2 21l-4 15l-3 15l-1 2l-6 14l-9 16l-26 39l-9 9l-12 14l-3 2l-4 6l-8 4v2q0 2 -5 5l-20 12h-10l-66 -26l-5 -11l1 -49l-2 -13l3 -6v-21l-2 -17l5 -18l-4 -4v-10l3 -16z" />
            <glyph unicode="C" horiz-adv-x="363" d="M20 384l2 10v17l2 20l4 22v14l7 10l2 16l18 49l18 30l5 12l7 4l5 10l10 4l2 7l8 6l20 16l11 3l3 3l11 7q4 4 10 4l7 2l15 4l15 4h12l10 4l17 1l13 -5l5 4l22 2l54 -7l8 -4v-39v-13l1 -22l-11 -5l-29 6l-6 2l-8 7l-5 -4l-4 -1l-12 -1l-8 3q-2 0 -4 -1l-10 -2l-5 3l-2 -2 l-18 -4h-10l-8 -7l-16 -5l-25 -17l-11 -11l-18 -28l-16 -34l-3 -14l-5 -14l-4 -26l-2 -14l-3 -8q0 -1 2 -5l-2 -12l-2 -2l1 -3l1 -15l-1 -12l2 -17l1 -36l1 -12l1 -2q1 -3 1 -5q1 -1 1 -5l2 -16l5 -15v-8l7 -18q1 -3 2 -8q0 -2 1 -4l2 -10l14 -27l19 -32l24 -22l13 -10 l10 -6l3 -8l5 1l16 -3l18 -11l3 2h3l14 -6l10 7l13 -7q5 -3 11 -3h3l29 5l12 -4l4 -3l3 -15l-2 -48l-3 -4l-12 -5l-14 1l-5 -2l-8 1l-22 -1l-13 2l-9 1q-2 0 -3 -1l-17 3l-43 11l-4 3l-10 3l-8 8l-14 3l-16 14l-12 4q-8 2 -8 7q1 1 1 2l-29 29l-11 12l-7 11l1 6l-2 3l-13 16 l-9 17l-8 22l-8 14l-2 15l-7 18l-8 41v18l-4 9l1 10l1 8l-5 20v18l1 11l1 10l-2 3z" />
            <glyph unicode="D" horiz-adv-x="412" d="M30 627q3 3 3 5l-1 6l2 14l2 4l14 5l24 2l42 -1l18 1l30 -1h15l17 -3l13 1l30 -4l12 -8l15 -3l14 -7l6 -9q1 1 4 1q4 0 10 -4l21 -18l1 -8l6 -3l17 -21l21 -41l8 -20l3 -22l5 -11l-1 -13l2 -4q3 -5 3 -10t-6 -9l1 -4l9 -11v-22l2 -17v-39l-2 -5l1 -19l-3 -17l-3 -29v-2 l-2 -1l-2 -17l-3 -7v-17l-22 -63l-7 -14l-7 -11l-6 -14l-3 -3l-6 -8l-6 -12l-6 -7l-7 -11l-7 -8l-5 -10l-8 -4l-13 -15l-5 -2l-7 -10q-7 1 -8 -5l-11 -3l-10 -7h-11l-9 -9l-7 -4l-14 -4l-15 -6l-29 -6l-1 -1l-31 -3l-17 -1l-7 2l-3 -2h-20l-14 1l-15 8l-3 38l1 11v34l3 14 l-4 15l7 17l-6 12l-3 12l2 7l1 34l-2 32l-2 33l3 13l-3 12l2 13v15l1 16l-1 12l3 20l-3 4l-2 27l1 17l-2 10l5 12l-7 10l3 19v54l-2 55v19l-1 6l1 5l1 12zM113 194l4 -16l1 -31v-35v-19l2 -8l-1 -2l6 -6l16 -2l27 9l19 7l8 7l12 6l10 9l2 4l11 7l19 20l8 13l14 23l6 13l3 4 l6 23l7 11v16l7 10l1 25l8 7v12l-1 11l4 16l1 54l3 15l-4 41l-3 4l-3 32l-12 31l-11 20l-1 5l-8 8l-3 4l-5 3l-2 4l-3 2q0 1 -1 2l-11 10l-5 5l-7 2l-6 3l-18 8l-17 4l-3 2l-4 -2l-18 1l-19 4l-10 -1l-15 -1h-9q-5 -2 -5 -5l3 -50l-2 -8l3 -8l-3 -12l2 -4l1 -15l-3 -5l2 -4 l1 -11l-2 -12l1 -27l1 -3l-1 -17l-2 -3l1 -6l1 -21l-1 -23v-40v-60l1 -17l-2 -11l4 -17z" />
            <glyph unicode="E" horiz-adv-x="303" d="M30 9v18v7v6l1 13l6 8l-5 7v16l-1 11l1 70l-1 14v26l2 5v18l-3 6l1 2l-1 9l1 69l1 3l-1 11l5 4l-6 12l6 14q-6 10 -6 17l1 58l1 12v18l-2 39q0 4 1 4h1l1 11l-2 3v5v2l1 9l-2 4l1 51l-1 46l3 22l12 5l6 -2l10 2l4 -2q1 0 4 3l4 -1l37 -1l8 2v-2l16 1l28 -2l12 2l12 -1 l11 3l12 -9l1 -14v-33l-3 -13l-20 -3h-20l-6 3l-29 -1h-10q-1 0 -7 2l-2 -6t-2 -5l-1 -2v-17v-12q4 -4 6 -4l13 2l15 -1q7 0 11 -4l2 1q1 0 3 -2l15 6l5 -4l16 4l20 -1l41 1l21 -1l2 -2l2 -12l1 -23l-2 -12l2 -5l-5 -15l-15 -1l-36 1l-35 -2q-3 4 -4 4l-9 -2l-15 -1h-26 l-20 1l-9 -7l1 -12v-22v-19v-23l-1 -32l2 -74l-2 -5l-2 -9l5 -4l-4 -13l5 -5l-1 -9l-1 -10l2 -15q-3 -5 -3 -7t3 -6l-3 -8v-15l-2 -5l3 -7l-1 -14l2 -6v-4q0 -3 -2 -3l-1 -1l3 -13l-3 -27l3 -9l-1 -14l2 -12l7 -2l13 3q6 -4 8 -4q2 1 5 1l10 2l15 -3h2l4 1v1v1l18 1l25 -1 l3 -2v3l24 -2l14 2l9 -4l2 -17l-2 -18l1 -2l-1 -7l1 -14v-6l-8 -7h-26h-16l-14 -2l-4 2l-7 -1l-34 -1h-9l-4 1l-17 -1l-12 3l-9 -2l-11 -2l-2 -1l-12 5l-4 -2h-8l-13 -1l-6 2l-17 -1z" />
            <glyph unicode="F" horiz-adv-x="312" d="M30 581l3 16l-2 14l2 13l-2 24l5 8l17 5h41l4 -1l13 1l7 -3l8 5l60 -1l3 -3l5 3h7l13 1l13 -2l1 -19l1 -30l-3 -14l-2 -4h-5l-12 3l-15 -3l-2 2l-43 1q-1 1 -2 0t-3 -1t-3 1l-5 2q-2 0 -2 -3v1l-14 -1l-2 -30l3 -10l-1 -5q1 0 3 1h2q4 0 5 -4l5 1l13 2q1 0 3 -2 q1 -1 2 -1h1l2 1q5 2 6 1l13 -3l16 3h12h43l24 3q0 -3 2 -3q1 1 1 2h22q1 0 1 -1q1 -1 4 -2l2 -1q1 0 2 -1v-2v-52l-6 -9l-3 -2h-31l-10 4l-4 -1v-3l-58 -1l-9 7q-6 -6 -9 -6t-6 4l-1 -3l-25 -2l-9 1l-11 -2q-2 0 -5 -7q0 -1 -1 -1l1 -11l-2 -1l2 -19l-2 -9l3 -3l-1 -27 l-2 -17l1 -17l-1 -16l2 -4l1 -99l-4 -12l6 -7v-5l-5 -11q4 -3 4 -7q0 -9 -7 -10l7 -10l-1 -73l3 -9l2 -75l-1 -13q0 -15 -6 -15l-15 -3l-35 1l-18 -1q-7 0 -9 8l-1 30l2 15l-2 6l3 35l-2 13l1 31l-2 17l1 31l-2 18l3 9q0 2 -3 5l1 11l2 7l-3 10l2 32l-1 56l1 15l-2 15l1 20 v18l-2 21l4 4l1 10l-2 2v-4l-4 4l1 10l1 60l-3 5l1 14l-2 18v15l2 6z" />
            <glyph unicode="G" horiz-adv-x="394" d="M20 327v36l2 31l1 32l6 32l14 46l12 29l9 13l4 11q3 7 8 9l2 1l6 13l22 21l4 5l2 1l12 11l17 9l8 6l46 18l9 2l8 2l16 1l9 4l13 -1l11 2l8 -3l15 4l29 -5l12 2l17 -2l11 -6q4 -2 4 -6v-2l-2 -5l-1 -10l4 -4l-1 -23l1 -8l-2 -13h-1l-2 -2l-13 1q-1 0 -2 1h-2l-7 5h-3 q-3 0 -4 -2l-14 4l-5 -1l-1 2h-40l-14 -1l-16 -4l-28 -9l-16 -9l-14 -9l-11 -13l-4 -1l-6 -7l-5 -5l-2 -2v-3l-8 -12l-7 -17l-2 -1l-8 -13l-2 -14l-4 -14l-5 -6l1 -3l1 -13l-6 -14l-5 -54l-1 -29l7 -34l-2 -11l10 -46l15 -47l2 -8l4 -4l6 -12l9 -13v-12l10 -11l4 -2l14 -21 l12 -11l23 -13l32 -12l18 -3l13 1l5 14v18l4 18l-3 13l2 5l-2 15l-1 8l4 14l-4 7l3 11l-2 27l3 9l-4 29l1 17l-2 15l1 28l-2 30l1 14v18l1 5l-3 17l2 30l8 9l12 4l19 -2l19 2l11 -3l7 3l6 -6v-7v-31l-1 -13l-2 -11l3 -12l-1 -13l-1 -34l2 -11l-3 -34l3 -6l-1 -17l2 -26 l-2 -27l1 -5l1 -27l-1 -34v-33v-15v-52l-2 -2l1 -7l2 -17l-6 -10q-8 -1 -10 -4h-5l-13 -1h-17h-17l-14 2l-12 -1l-18 4l-16 2l-9 4l-20 2l-15 9l-5 -1l-13 9l-14 7l-14 10l-13 11l-24 22l-15 19l-5 14l-13 13l-1 8l-3 3l-7 11l-5 11l-9 13l-19 62v15l-5 9l-1 24l-3 9l1 15 l-3 4z" />
            <glyph unicode="H" horiz-adv-x="423" d="M30 6l1 42l4 14l-5 16v9l4 7l-3 18l1 15l-2 14l4 14l-2 18l1 12h2l-1 3v18l-1 68l-2 5l2 13l-1 14l1 28v26l-2 26l4 10l-4 12l4 12l4 11l-7 15v32v55l1 30l2 12l-4 13l4 19l-2 13v22l2 13l8 7l17 1h7q1 0 4 3l12 -4h28l4 -7l2 -15l-4 -13l3 -2l1 -4l-2 -18l2 -22h2l2 -8 l12 -3l13 2l11 -6l13 4l14 -2l39 1l31 1l16 -1h19l12 6l6 12l1 15l-2 14l1 10l-1 12v16q4 3 5 6l8 1l15 2l17 -3l11 2l6 -2q2 1 3 3l9 -3q2 0 4 -2q3 -3 3 -7l-2 -4l4 3l-3 -17l1 -58l-5 -17l5 -15v-5q1 -1 2 -3l-1 -14l-3 -3l-1 -12l3 -12l-1 -40l2 -42v-26l1 -15l-1 -26 v-30v-45l1 -21l-3 -11l5 -6l1 -17v-12l-3 -10l3 -6h-3l4 -14v-69l-2 -12l-1 1l3 -24v-20l-1 -30l-2 -13l-8 -5l-5 -1l-18 1l-38 -1l-9 7l-2 15l3 37l-4 10l6 18l-3 7l2 15l3 5q-1 6 -4 6l-1 56l1 18l-2 9l1 33l-3 14l4 6l-3 16l4 18l-3 6v10l-1 15l2 11l-1 21l1 21l-1 16 l-4 12l-17 3h-15l-16 1l-10 -2l-15 5l-19 -3l-18 3l-10 -2l-15 1l-34 -2h-9l-2 -1h-4q-6 0 -8 -8l-1 -9l3 -11l-2 -16v-80l-2 -16l2 -20l-1 -32v-36l-2 -21l1 -14l-1 -9l2 -25l-2 -14l2 -23l-1 -25l2 -6q0 -1 2 -9q-1 -1 -2 -12l-1 -9l-7 -8l-19 -1l-46 1zM111 486l1 -9 q2 -7 11 -7l11 1l5 -3l7 3h15l12 -5l11 6l10 -1l37 -1l12 -2h9v1h11l14 2h19l13 6l-2 6l1 14q0 3 -1 4l-2 2l-2 11l-14 2l-21 -1l-4 1l-18 -2l-4 2l-15 -4l-28 1l-49 -1q-3 3 -5 3l-5 -1l-14 2l-11 -4v-23z" />
            <glyph unicode="I" horiz-adv-x="149" d="M30 605l2 12l-2 21v3l5 12l-4 -2v2q0 6 8 8h9h19q1 0 2 -1l8 1h19l4 2q14 -1 14 -6l1 -13l-2 -16l2 -14l-4 -18l2 -17l-2 -10l1 -14l1 -50v-77v-10l-3 -8l5 -28l-1 -85v-16l-1 -30q4 -5 4 -12l-1 -54v-55l2 -22l-2 -17l2 -15l-2 -6l1 -34l3 -11v-17l-4 -7l-10 -1l-12 -1 l-17 1l-31 -2h-2q-10 0 -10 7v1l2 19v33l2 17q0 3 -4 8v11l3 13l-1 15l2 6l-3 25l2 24l-2 22l2 16l-1 46l-1 35l-2 19l3 33l-3 40l2 20l-2 28l-2 74l3 16l-2 27l1 25l-2 4v19z" />
            <glyph unicode="J" horiz-adv-x="254" d="M10 22l1 17v14l-1 10l2 5l-1 7q0 1 2 3q1 4 4 4l17 -2l12 -2l1 -2q1 -1 3 -1h2l14 5l12 -1l14 7l16 9l6 9l9 16l10 30l2 35l3 11v15l3 93l3 11l-3 19l2 16l-1 15l-2 4l2 42l-1 11v21l3 34l-4 8v25l2 15l-3 17l3 12l-4 11l2 18v4l-1 3l-1 53v12l10 7l23 -3l13 2l23 -1 l15 -6l1 -21l-1 -20l-1 -10l1 -21l2 -9l-4 -12l2 -41l1 -63l1 -16l-2 -10l2 -14l-3 -40l-1 -148l1 -10l-3 -12l2 -10l-2 -21v-15l-4 -31l-5 -14l-2 -11l-6 -11l-1 -14l-7 -8l-9 -14l-5 -10l-11 -12l-14 -8l-4 -6l-8 -7l-10 -6l-1 -1q-3 0 -7 3l-8 -5l-2 -4l-48 -4l-10 2 l-3 -2q-1 0 -5 2h-18l-12 4q-7 0 -7 2z" />
            <glyph unicode="K" horiz-adv-x="408" d="M30 7l2 45l-1 35l2 15l-2 15l2 16l-2 11l2 36l-2 15l1 15l-1 17l2 15l-1 29v12l-2 12v17v15l5 33l-5 11l3 28v10l1 25l-1 8l2 2l-3 16v15v3l1 19l-3 17q1 1 1 2l1 4l1 10v23l1 8q0 2 -1 2q0 1 -0.5 5.5t-0.5 7.5l1 31v16l-1 1l1 2l-2 6l-1 12l2 4v12l15 -1h2q4 2 10 2 q1 0 2 -1l2 -1l43 1l4 -1l5 -11l-2 -8l1 -17l-4 -13l2 -8v-11l-1 -33l1 -70l-1 -15v-8q0 -4 5 -8q2 -2 3 -4l11 4q0 5 1 6l9 5l6 9l6 2l5 9l10 11l5 9l13 14l10 11l3 5q0 1 4 3l2 9l8 9l5 11l4 3l14 26l6 10v4l2 2l3 4l4 4q2 1 4 9l3 13q0 1 3 4q2 4 2 8l13 2l29 -1l39 -1 q2 -7 3 -9l-4 -16l-10 -13l-5 -15l-9 -17l-2 -5l-11 -14l1 -7l-10 -14l-2 -1q-3 0 -3 -3l-1 -3l-35 -55l2 -14l8 -15l7 -16l8 -25l15 -32l1 -6h2l1 -15l11 -30l14 -46l7 -16l7 -30l4 -11l8 -17l9 -36l1 -15l7 -19l3 -11l7 -16l3 -27l4 -13l5 -9l6 -33l3 -26q-2 -2 -2 -5 l-12 -3h-22l-11 -1l-12 3l-14 -3l-11 4q-6 3 -6 11l-1 8l-7 55l-5 18l-1 17l-6 8l-6 33l-6 24l-8 25l-6 30l-12 30l-4 12l-2 14l-7 13l-4 20l-12 34l-5 5l-9 28l-7 17l-2 6h-9l-26 -23l-18 -18l-4 -1l-11 -17h-3q-4 0 -7 -4l-6 -7l-4 -16l1 -48l-2 -21l2 -31v-74v-6 q0 -3 3 -6l-4 -13l4 -11l-2 -30l3 -22v-47l-3 -13l-10 -5l-19 3l-34 -1l-15 1z" />
            <glyph unicode="L" horiz-adv-x="361" d="M29 574q0 3 1 5q1 0 1 1q2 2 2 4v4l-1 11l-2 32v22l4 6l13 1l9 -2l2 2l14 2l2 -3l4 2l19 -2l11 1l7 -4l2 -28l-2 -47l1 -15l-2 -25v-21l2 -14l-3 -12l2 -12v-34v-51l-1 -15l1 -24l2 -43l-1 -32v-15l-1 -11l3 -14l-4 -18l2 -81v-34l2 -1l-2 -9v-11l2 -11l10 -2q4 2 8 2 q3 0 4 -1l9 -4l14 4l46 -1l15 2l24 -2l13 2l10 -3l10 1l12 -3l11 5l17 -1h15l12 -4l2 -5l-1 -35q0 -1 1 -1q0 -1 1 -2q1 0 1 -2q0 -1 -2 -3v-2l-2 -15l-6 -8h-20q-4 4 -7 4h-1l-10 -4l-14 1l-10 -1h-16l-3 2l-11 -1l-60 -2q-1 0 -2 1q-2 2 -4 2h-1q-1 -1 -2 -1l-3 -1l-12 -3 l-30 2h-17l-10 3l-15 -5l-14 1l-10 -1l-7 3h-17l-10 4l-3 11l-1 16l3 25l-1 65l1 30l-1 31l2 16l-3 15l2 31l-3 18l4 11l-2 9l1 43l-1 43l4 13l-2 12l-3 43l3 9l-1 14l-3 14l5 13v1q0 4 -6 9l-1 29l1 23l1 14l-1 3l1 1l-2 4q-1 1 -1 4z" />
            <glyph unicode="M" horiz-adv-x="538" d="M29 203q0 4 5 9v6h-2v17l2 16l-2 22l2 28l-1 4l-1 12l2 8l-2 47l2 14l2 9l-4 5l3 14l-4 17l3 17l-2 8v40l4 16l-3 24l2 32l-1 14l4 16l-2 21v35l7 5l11 1l1 3l1 -4l25 1l6 -2h31h12l2 -3l7 -7l5 -11l9 -9l5 -10l11 -8l4 -12l9 2l1 -13l3 -1l1 -2q0 -1 3 -4l5 -8l9 -5 l21 -29q4 0 8 -5l9 -13l10 -9l6 -8l7 -2q2 -7 11 -7l1 1l7 9l13 19l8 5l2 6l6 10l8 7l8 11l11 12l23 29l11 8l5 9l9 9l-2 5l4 8l11 7l-2 5l19 4l28 -1l2 2l17 -2l16 1h11l2 -5l4 1l2 -14l-2 -39v-1q0 -5 5 -9l-5 -12v-19l3 -9v-4q0 -4 -1 -6q-1 -1 -1 -2v-15l2 -6l-1 -20 l-2 -14l3 -19l-1 -31l2 -22l-3 -17l4 -15l-1 -14l-2 -5l4 -23l-2 -16l2 -17l-1 -18l2 -12l-2 -18l2 -4l1 -13l-4 -14l2 -12l-1 -26l4 -15l-3 -15l3 -11l-1 -36l3 -103l-3 -10h-16h-53l-7 -1l-3 7l-1 18l3 11l-3 11l2 15l-2 14l3 15l-2 27l-2 32l3 8l-1 35v16l-2 5l1 34 l-1 51l-2 3l2 32l-2 20v34l-1 17l-1 24l-3 10q0 3 4 4v19l-3 13l4 12l-4 13v15v14q0 5 -4 5q-3 0 -6 -3l-3 2l-3 -3l-4 -3l-3 -5l-7 -7l-2 -4l-1 -2l-1 -1l-11 -12l-2 -5l-9 -6l-7 -11l-1 -2l-7 -7l-14 -19v-3l-5 -2l-9 -6l-11 -18l-21 -25v-1l-6 -6q-2 -2 -3 -6l-11 -2 l-4 4l-8 3l-8 12l-12 9l-17 24l-11 10l-7 14l-16 16l-6 11l-3 3l-1 3l-10 6q-4 1 -6 6l-4 7l-5 5l-9 12l-10 9l-3 7l-4 2l-1 -3l-3 3q-5 -5 -5 -7l1 -2v-2l-2 -4l1 -17l-1 -11l3 -3l-1 -3l-2 -11l3 -8l-3 -21l2 -19v-16l-1 -6v-16l-1 -8v-10v-14l-1 -12l1 -3v-18l1 -4l-2 -5 l1 -60l-3 -35l3 -70l1 -30l-1 -14l3 -17l-2 -15l1 -36l-1 -13l1 -25q-5 -1 -9 -5h-12l-6 2q-3 0 -6 -2l-10 1h-17l-10 1l-2 -1h-3l-5 1l-5 10l2 3q-2 1 -2 5v43l4 28l-3 4l1 16v35l-2 4l3 16l-2 36l-1 -1q-1 0 -1 1v3z" />
            <glyph unicode="N" horiz-adv-x="463" d="M32 566l2 18l1 20l-3 6l1 10h1q2 2 2 3q0 3 -3 6v21l-1 5q3 1 3 2v1l7 5l7 -1l15 1l8 -1l4 1h5h16l3 1l18 -5l8 -8l8 -5l34 -30l36 -30l3 -12l3 -3l12 -1l15 -14l5 -7l7 -3l7 -5l1 -5l10 -3l7 -14l14 -6l44 -41l11 -9l1 15l3 10l1 25l-2 5l-1 52l-3 11l5 10v5l-6 13l2 11 l-3 3l4 14l-1 3l1 14l6 7l14 -2h10l9 3q1 -1 2.5 -2t2.5 -2h13l5 4l11 -2l1 -5l5 -1v-66l-2 -6l2 -19v-68l-2 -21l2 -23l-2 -71l3 -11l1 -24v-69l2 -85l-3 -12l5 -20l-2 -27l3 -18l-2 -16l2 -16v-33l3 -33l-3 -12l-8 -4v-1h-13q-2 2 -3 2q-1 -1 -1 -2h-18l-5 2l-2 -2h-23 l-2 2l-4 1q-2 0 -2 9l1 10l2 12l-5 10l5 16l-3 18l3 13l-3 15l3 11l-2 31v13l4 -1l-5 18l1 16l-2 86l-2 9l2 7l-2 43l-5 16l-5 13l-25 21l-2 5l-6 6l-1 2l-8 5l-7 6l-9 12l-26 21l-9 11l-13 9l-9 10l-14 12l-12 8l-12 12l-4 5l-7 5l-6 4l-19 15l-2 3l-21 14h-5l-8 8l-1 -68 l3 -7l-1 -17l-2 -27l3 -14q-2 -2 -2 -9v-4l2 -138l-1 -29l3 -20v-16l-2 -12l2 -56l-2 -11l2 -4v-17l1 -73l1 -21v-1q0 -18 -13 -18l-25 -1l-9 1l-4 -1l-5 1h-20l1 1q0 2 -5 4l-3 9v39l2 29l1 53q0 2 1 3t1 3q0 3 -1 4q-2 3 -1 3v9l3 3l-4 9v8l3 15l-1 13l-1 55l2 14l-4 7 l1 10l2 3l-4 15l3 26l-2 12l3 11l-3 9v29l1 7l-1 68v5v2q0 3 1 5l1 13q0 12 -4 13l2 6l-1 14l-1 2l1 17z" />
            <glyph unicode="O" horiz-adv-x="433" d="M20 428l2 14l-1 2v7v15l2 8l-1 10l6 32l11 37q0 2 6 5l2 2v9l14 16v4l10 12l13 16l15 11l26 16l14 5l14 6l25 5l35 2h17l13 -2h3l1 1q1 0 2 -1l10 1l17 -4q3 0 3 -2l1 -1q0 -3 8 -3l9 1l11 -6l8 -2l5 -8l5 1l8 -5l6 -13l3 -2l10 2l6 -13l13 -6l2 -7l3 -3v-6l7 -8v-2 l14 -26l6 -19v-15l5 -8l-1 -22l5 -7v-6v-28l-3 -37h-4v-15l-18 -47l-7 -11v-2q0 -1 -2 -3q0 -1 -1 -2t-2 -2.5t-1 -3.5h-1l-26 -28l-33 -22l-10 -4l-28 -8l-10 -6l-17 2l-9 -6l-8 3l-14 -2h-11l-31 3l-19 5l-6 -1l-9 10l-7 -2h-4q-6 0 -12 9l-11 4l-11 9l-10 7l-5 9l-12 6 l-4 4l-7 17q-2 3 -4 3h-1l-8 20l-6 9l-8 15l-2 10l1 3l-5 10l-2 19zM99 458l2 -10l-1 -4l1 -18l3 -5l-1 -4l1 -11l9 -15l5 -13l2 -5l13 -7v-13l9 2l3 -6l11 -9l16 -8l21 -7l18 -1l4 1l13 -1l27 5l25 11l17 11l10 13l5 11l5 7q2 2 2 5l2 4l5 13l4 12l4 32l-2 35l-2 16l-4 12 l-4 14q-1 5 -1.5 6.5t-2 2l-4.5 1.5l-7 15l-22 21l-16 11l-11 3h-7l-6 3l-9 1l-16 2l-17 -1l-12 -2l-25 -9l-5 -2q-1 0 -2 -0.5t-2 -0.5l-15 -12l-12 -13l-5 -9l-11 -11l-3 -14l-4 -10l-5 -25l-1 -18zM181 158l1 11l4 10l-4 4l-1 11l8 9l11 2l18 -2h10l7 3q2 0 5 -3l15 3 q2 -2 4 -2h2l4 -7q2 -2 2 -4t-4 -12l1 -3l1 -35l-1 -13q0 -9 -14 -9h-12l-13 1l-14 -1l-19 -1q-8 0 -8 6l-1 29zM184 7v4l1 11l3 14l-3 3l2 12l1 9l-1 18l9 5l5 2l12 -2l11 2l5 -4l17 2l10 -1l8 -1l2 -4v-57l-4 -15l-15 -6h-16l-15 2l-27 -2z" />
            <glyph unicode="P" horiz-adv-x="379" d="M30 648q0 5 3 8l4 3h4l3 3q2 3 6 3q2 0 3 -1l10 -2l18 3l114 1l31 -2h6l7 1l28 -1l15 -2l3 1l2 -1l33 -10l14 -8l3 -6l5 1l6 -10l7 -12q3 -4 4 -10l3 -4l4 -26l3 -2l-1 -3l-4 -32l-2 -13l-10 -11l3 -7l-3 -5l-8 -15l-10 -12l-7 -7l-3 -6l-26 -18l-38 -22l-50 -22l-12 -2 l-7 -6l-13 -1l-1 -5l-3 -1l-11 -3l-11 2l-3 -7l-5 -2l-16 -2l-10 -12l-3 -15l2 -18l3 -3l-2 -18l2 -37l-3 -16v-41l2 -8v-47l3 -29l-4 -11l3 -7l-3 -10l2 -11v-16l1 -60v-8l-9 -6l-36 1l-19 -2l-12 2l-5 8l-2 11l2 17l-4 13l4 27l-3 11l4 14l-2 31l-1 50l1 6l-2 37l2 13 l-2 14l1 46l-3 37l2 39l-2 14l1 32l1 15l-3 11l1 11l2 8l-4 7v7l2 14l-1 51l-2 4v21l3 16l-3 21l-1 22zM113 494l3 -35l3 -7h14l13 4h4q2 1 6 2l6 2l2 1q1 1 3 2.5t4 3.5l3 1h17q2 7 9 9l9 3l11 3l16 10l13 12l8 1l8 10q9 2 9 8v1v3l9 11l4 12l-2 20l-8 12l-14 7l-12 3 l-15 2l-12 2l-15 -2l-22 4l-30 -1l-10 -1l-5 2q-4 -3 -7 -3l-8 -1q-2 -1 -3 -3l-3 1l-4 -11v-25l-2 -24l1 -11l-2 -10l3 -6z" />
            <glyph unicode="Q" horiz-adv-x="492" d="M30 369v44l1 5l-1 14l6 43l19 68l17 32l11 12v5l9 8l19 17h7l3 4l6 8l5 1q0 4 1 4l5 2l13 8l15 2q0 3 2 5l40 11l27 2l35 -1l3 1l7 -3h16l8 -6h12l5 -3h3l1 1q1 0 5 -2l16 -7l38 -22l11 -10l1 -4l13 -11l6 -12l9 -9l5 -12l17 -39l1 -13l4 -3l1 -11l-4 -6l7 -6l5 -24v-17 l2 -41l-2 -47l-3 -32l-5 -27l-4 -12q-2 -6 -2.5 -7t-5.5 0l2 -12l-14 -28l-16 -29l-9 -11l-4 -3l-5 -9l-18 -4l-2 -12l-12 -3l-10 -10l-12 -6l-9 -5q-6 -2 -8 -2l-18 -2q-6 -5 -11 -5h-6h-13v-7l16 -2q2 -2 5 -4l2 -2l7 -2l20 -8l13 -8l26 -8l14 -3l12 -9l17 -2l28 -6l21 -1 l29 3l11 2l4 -1l10 -6l2 -17l-2 -46l-12 -8l-9 -2v-3l-14 2l-14 -2l-13 2l-4 -4l-17 6l-8 -1q-2 0 -6 2l-9 5l-18 1l-17 4l-68 27l-62 21l-49 6h-12l-15 -1l-16 -3h-1q-3 0 -6 4l-10 -7l-2 -4l-13 3l-3 -9l-5 -2l-12 -1l-3 2l-2 16l2 13l-2 5v29l2 8l6 8l8 2l13 2l2 3l16 3 l36 1l3 5l-31 10l-33 20l-13 9l-4 10h-4q-4 0 -8 7l-23 38l-6 12v6l-9 11l4 3l-6 8l-2 9l3 7l-5 10l-3 4v16zM111 384l2 -16l-1 -10l2 -14l4 -20l-2 -5l13 -34l13 -28l21 -22q0 -1 0.5 -1t0.5 -1q2 -1 4 -3l11 -9l29 -11l20 -6l30 3l14 6l4 -4l1 3l2 -1q1 0 7 3l27 13l19 14 l10 12l8 13l9 20l5 10l6 13l2 12l4 8l3 33l1 37l-2 36l-3 29l-10 37l-11 25l-2 1l-3 5l-4 2l-9 17l-8 3l-5 10l-3 -1l-6 6l-16 9l-15 7h-7l-14 3l-17 1h-14l-3 -3q-2 2 -4 2q-5 0 -8 -1l-13 -5l-28 -13l-13 -11l-15 -17l-8 -12l-7 -11l-11 -30l-6 -23l-3 -32z" />
            <glyph unicode="R" horiz-adv-x="414" d="M30 499l1 1v8v16l2 15l-3 7l1 31l1 64l2 16l9 4l5 -2l59 1l17 2l10 -1l6 1h75l13 -2h14l13 -3l27 -1l11 -7h10l9 -4q4 -6 10 -6q1 0 3 1l4 -9l12 -7l2 -5l7 -7v-5q5 -1 5 -7h4v-13l3 -15v-30l1 -3l-4 -15l-8 -14l-14 -19l-19 -19l-6 -3q0 -6 -7 -10l-10 -5l-5 -4l-6 -11 l-3 -9l26 -65l2 -13l5 -5l7 -18v-10l7 -15l-2 -3v-1q1 -2 1 -3l5 -13l11 -33l18 -60v-6l10 -29l6 -27l5 -9l2 -14l4 -8v-10l5 -12l3 -20l7 -26v-14l1 -8q0 -4 -3 -6l-8 -3l-29 -2l-5 -1l-10 4l-11 -3l-14 2l-5 12l-6 35l-4 11v16l-6 11l-3 23l-6 15l-1 15l-7 14l-2 14l-3 8 l-4 13l-9 30l-4 24l-1 8l-4 4l-5 9l-6 29l-7 14l-12 35l-1 11l-12 32l-7 14l-5 6l-8 -4l-6 2l-3 4q-5 -2 -6 -8l-12 -5l-3 2l-5 -2l-32 -9l-8 -8l-7 -8l-1 -42l2 -81l1 -15l-3 -30l4 -10l-1 -54l2 -1l-1 -5v-53v-17l3 -16l-2 -31l-3 -8l-13 -4l-15 5l-9 -5l-17 2l-3 -2 l-15 1q-7 0 -7 16v30l1 22l-3 10l1 37v12l3 27l-6 9l-1 3v1q1 1 3 2l1 10l1 -4l-3 23l1 36l3 11l-3 23l-2 152l4 16h-4l-1 33l1 16zM107 549l6 -4l1 -14l-2 -66q0 -5 6 -9l7 1l10 4h6l17 4l13 6l10 -3l17 12l19 5l10 7l14 8l14 10l11 12l11 15l3 15l-2 12l-8 10l-9 6l-6 3 l-15 4l-50 3l-15 -1l-12 2q-2 -2 -4 -3h-10l-6 2l-1 1q-1 0 -1 -1l-3 -2l-11 -1l-12 -4l-2 -5l1 -14z" />
            <glyph unicode="S" horiz-adv-x="409" d="M21 49l21 45l6 8l11 6l23 -12l2 -2l11 -7l6 -1l3 -3l12 -2l2 -1l9 -2l12 -3l17 -1l27 1l11 4l25 6l18 8l23 17l25 27l13 24l5 15v7l3 9l-1 3l2 13v10l-2 8l-1 11l3 6l-6 12l-5 11v5l-9 14l-6 10l-32 37l-33 31l-12 9l-24 18l-5 8l-17 6l-25 19l-6 10l-12 3l-7 11l-11 4 l-6 11q0 4 -8 4l-7 10l-4 11l-11 8l-8 20l-5 16v17l-2 4l2 20l6 20l5 15l15 18l11 6l8 8l8 2l2 4l33 13l21 3h13l22 -1l12 1l4 -1h2l1 1h1l18 -2l12 -4l12 -2l7 -9l1 -17v-7l-1 -8v-15l-3 -15l-8 -5l-21 1l-13 1l-1 5l-19 -2l-5 6l-3 -1l-10 -2h-16l-19 -9l-12 -14l-2 -13 l6 -17l14 -16l23 -19l13 -9l21 -18l9 -5l1 -5h4l2 -4h3l25 -17l34 -32l13 -8l28 -26l16 -18l23 -33l5 -15l9 -13v-13l8 -15l-3 -8l8 -14l-6 -12l5 -2v-20l-6 -47l-3 -17l-14 -30l-6 -11l-1 -5l-11 -7l-1 -4l-5 -12l-23 -23l-25 -18l-33 -18l-33 -12l-34 -6h-18l-11 1l-14 -5 l-14 3l-13 2l-14 -1h-7l-11 8l-12 -5l-8 7l-14 4l-14 5l-12 9l-10 7z" />
            <glyph unicode="T" horiz-adv-x="388" d="M10 651q2 6 7 6l1 3l14 2l34 1l8 1l12 -3l6 -1l16 2l18 -2l7 4l7 -2l55 -1l13 -3l19 2l12 1l14 -3l99 3l8 1l12 -3l6 -10l-2 -2v-42l-8 -12l-1 -7l-13 3l-16 -2l-12 1q-2 6 -6 6q-2 0 -4 -2l-3 -2h-8q-1 -1 -1 -2l-48 1l-11 -5l-5 -16l-1 -48l1 -5l-2 -7l1 -12l1 -72 l-2 -12l3 -9l-3 -19l1 -12l-1 -75l1 -27l1 -14l-2 -15l1 -20v-11l-4 -16l4 -12v-47l2 -13l3 -19v-18l-4 -5v-1v-5q0 -1 1 -2h2v-42v-13l-1 -9l-4 -2l-12 -5l-16 -3h-9l-7 4l-6 -1l-15 -2l-9 3q-2 4 -4 4h-2l2 81v3l-1 15l2 31l-4 48l4 23l-2 43v22l1 17l-1 9l2 32l-4 12 l2 37l-1 42l-1 83v18l3 12q-2 1 -4 6l2 18l-5 4v11q-1 6 -5 14l-12 1h-37l-15 1l-18 -3l-24 3l-2 -3l-14 1l-9 5l-6 9v42z" />
            <glyph unicode="U" horiz-adv-x="451" d="M30 488l3 8l-2 6l1 8l3 7q1 2 1 7v2l-4 6l-1 43l-1 10l3 6v3q0 3 -3 6l4 23l-2 1v20l2 14l21 4h12l32 -1q4 0 9 -3.5t5 -6.5v-12l-1 -52q2 -6 2 -7v-3l-2 -14l2 -13l-2 -15l1 -32l-3 -18l1 -22l-1 -15l3 -14l-3 -13l1 -16l-1 -11l-1 -17l1 -21l-1 -21l1 -16l-1 -16l1 -15 l3 -18v-47l2 -17v-15l6 -27l8 -31l6 -12l5 -6l10 -15l13 -7l2 -4l5 -1l6 -4l16 -6l17 -2q5 0 8 -3h4h12l14 4l17 2l17 8l13 9l8 5q1 2 3 4l1 1q0 2 1 2l3 8l8 8l-1 11l8 10l5 18l3 18l1 12l2 15l-1 15v4q0 5 4 10l-2 6v13l3 9l-2 84v3v5l1 6l-1 52l-2 5v13l3 6l-1 6l-3 12 v51v44l-3 16l2 16l-1 15l-2 11l2 21l-4 16l2 4l7 9h7l21 2l33 -1h7q6 -3 8 -5l1 -12v-18l2 -53l-3 -23l2 -10l-2 -17l3 -28l-1 -5v-11l-1 -1l2 -2l-1 -6l2 -66l-1 -27l-1 -15l2 -16l-3 -7l5 -13l-1 -10l-3 -54l1 -6l1 -5l2 -3q2 -2 2 -3t-0.5 -1t-0.5 -1l-5 -8l3 -11l-1 -4 l-2 -1l-1 -32l-5 -41l-3 -14l-6 -14l3 -3l-2 -2l-14 -32l-12 -17l-27 -31l-15 -7l-5 -5q-6 0 -7 4l-11 -10l-18 -8l-16 -3l-1 -2l-17 -3l-23 -3l-29 2l-12 1l-11 4l-14 -1q-4 4 -7 4t-5 -2l-16 6l-6 7l-4 -4l-12 8l-9 7l-9 5l-4 8l-11 4l-5 7l-3 13l-3 -1q-6 0 -9 8l-14 32 l-10 32l-3 17v16l-4 16l2 11l-1 12l-4 8v37l-1 18l2 17l-1 12v26v44v37l2 12l-3 10l2 23l-3 3z" />
            <glyph unicode="V" horiz-adv-x="478" d="M0 647l6 11l19 3l43 -1h13l9 -14l16 -63l6 -11v-4q0 -1 1 -2l1 -10l22 -78l14 -45l3 -16l6 -15l3 -13l13 -42q-1 -1 -1 -2l2 -4l4 -10v-6l1 -11l6 -15l9 -32l4 -16l6 -14l2 -26l15 -42l2 -7q1 0 1 -1t1 -2l-2 -2l5 -9l1 -5q0 -1 3 -3l2 -13l7 -10l1 5l4 -1q6 4 7 10l2 13 l4 16l6 18l14 58l17 54l13 59l2 1q0 1 1 3l13 43l14 66l7 14l1 14l8 21l3 5l1 17l2 11l3 10l4 12l1 12l5 7l3 21l10 48q1 3 5 3q3 0 5 -1l3 4l11 1h1q4 0 9 -4l9 4l15 -1l18 1l10 -3l3 -2l-1 -6l-1 -14l-11 -44l-8 -13l2 -7l-4 -12l-4 -4l1 -4l1 -13l-14 -44l-19 -72l-3 -16 l-12 -32l-3 -15l-5 -13l-9 -31l-3 -16l-4 -9v-6l-3 -12l-5 -4l-3 -9l3 -10l-8 -14v-4.5v-7.5v-4l-1 -3l-3 -4l-5 -25l-2 -2l-7 -14l-2 -17l-6 -14l-3 -16l-1 -4l-11 -8l6 -13l-8 -18l-6 -25l-3 -9l-3 -10h-1l-9 -30l-7 -7l-13 -3l-61 1l-12 -1l-9 7l-7 10l-16 48l-4 9l-5 19 l-28 81l-6 15l-8 30l-25 87l-35 124l-5 10l-3 17l-5 12l-21 80l-5 14l-3 15l-7 11l-4 31l-7 12z" />
            <glyph unicode="W" horiz-adv-x="681" d="M0 643l2 11l12 5l46 -1l21 -5v-1l7 -17l10 -49l7 -9l5 -27l5 -5l-2 -4l1 -10l5 -15l3 -16l-2 -2l9 -25l12 -49l4 -9l1 -10l3 -10l5 -14v-10l5 -15l12 -32l4 -18v-7l3 -3l1 -12l7 -15l4 -14l12 -37l5 -17l6 -15l8 -30l6 -12l-2 -2l6 -13q0 -1 -1 -2h4l17 49l9 41l4 11 l5 17l5 4l3 10l-2 10l1 4l10 11l-4 11l7 14q3 6 3 9q0 2 -3 13l-13 40l-12 47l-5 11l-11 46l-8 18l-2 15l-7 15l-2 15l-6 14l-2 15l-6 26l-1 15l-7 13l-4 19v12l2 5l13 2l2 3l5 -2h55l9 -4l4 -13l9 -46l-2 -10l3 -6l7 -11l-3 -11l2 -7l4 1l6 -33l9 -38l2 -11q2 -9 5 -10h-2 l1 -5l5 2l2 11l3 14h2l2 5l3 1l-2 5l-1 9q5 1 6 10l2 12l4 11l2 15l8 27l3 21l5 15l-1 9l4 7q0 1 -1 2h6l-2 16l8 8l16 3l21 1l34 -3l6 -10l-3 -15q0 -1 -1 -3t-1 -3t-1 -2q0 -2 -1 -2l-3 -14l-5 -13l-6 -31l-4 -10l-4 -13q-1 -1 -1 -2q-2 -2 -2 -8l-2 -9l-5 -14l-2 -15 l-16 -51l-5 -19l-4 -15l-19 -62v-15h-3l2 -15v-6l3 -3v-1q0 -2 0.5 -4t0.5 -5l1 -11l3 -3l-1 -1l3 -8l10 -31l3 -18l5 -4l2 -15l5 -14l5 -13l2 -2l8 -39l5 -9l3 -15q0 -2 5 -2h2l5 13l1 5h1l3 18l2 1l4 5q1 1 2 1l7 31l9 32l3 15l15 46l2 16l5 17l11 28l2 14l5 14l3 10 l-1 11l5 11l3 14l5 15l3 2v18l7 10l4 20l9 38l2 2l1 1l9 33l2 20l9 29l4 34l6 18l4 4l11 2h17h31l4 1h1q9 0 17 -7l-1 -4l-1 -15l-11 -39l-2 -10l-8 -12l3 -7l-3 -2l-6 -12l4 -3l-1 -3l-1 -13l-13 -30v-11l-24 -77l-2 -12l-6 -19l-18 -62l-2 -15l-6 -15l-7 -28q-2 -2 -4 -5 q-4 -4 -4 -9v-2l2 -8l-10 -16l2 -7l-7 -16l-1 -7l-7 -26l-19 -62l-4 -15l-21 -60l-7 -18l-8 -13l-18 -3v1l-5 2l-15 -2h-13l-25 -1l-17 5l-14 45l-17 51l-4 7q-3 5 -3 10q0 8 -1 8l-2 4l-6 18v13l-5 5v5l-2 12l-6 12l-4 -1l-3 -19l-5 -10l-5 -10l-1 -15v-4l-7 -11v-11 l-5 -14l-3 -17l-5 -10l-3 -12l-15 -46l-5 -11l-16 -3h-41l-11 1h-15q-8 0 -8 9l-1 5l-37 117l-2 15l-16 40l-2 15l-8 16l-7 30l-7 14q1 2 1 4q-1 3 -3 8l-3 8l-9 31l-1 6l-12 37l-8 34l-10 31l-9 34l-19 65l1 22l-8 11l2 11v1q0 4 -3 4l-2 2l-3 8z" />
            <glyph unicode="X" horiz-adv-x="494" d="M9 3v13l40 84l8 16l6 14l9 18l20 44l9 14l7 19l8 10l14 34l8 7l6 14q4 10 9 14q8 5 9 10l1 15l11 13l5 15l12 22l2 12l5 3l-1 4l-21 35l-8 15l-8 11l-22 33l-9 17l-12 17l-7 13l-10 17l-9 7l1 8l-7 8l-7 16l-11 14l-8 13l-17 23l7 12l31 1l62 -2l4 -3l4 -16l8 -11l4 -13 l12 -11l4 -14l8 -7l22 -44l3 -2l19 -35l12 -17l10 -3l7 15l9 14l17 30l4 10l7 9l7 15l9 8l6 20l12 14l6 12l9 10l2 8l9 10l15 2l19 -2l16 2l34 -2q4 0 5 -3q4 -4 2 -6l-5 -8l-5 -5l-4 -14l-10 -11l-8 -10v-8l-13 -18l-9 -15l-6 -8l-7 -14l-25 -38l-9 -17l-21 -32l-8 -17 l-9 -12l-9 -17l-5 -12l20 -34l8 -12l5 -14l6 -3l7 -19l11 -14l8 -21l8 -12l44 -80l5 -15l11 -19l4 -11v-1l5 -8l8 -11l2 -11l33 -61l9 -19l2 -6l5 -8q0 -4 -2 -7q-1 -3 -5 -3l-17 -2h-60l-9 3l-4 5l-3 11l-6 7v11l-8 12l-8 15l-5 17l-13 24l-4 11l-5 5q1 2 1 4t-3 6l-5 8 l-13 29l-18 35l-8 18l-12 20l-7 17l-5 4l-5 9l-2 7l-9 11l-1 2l-2 3l-1 1l-9 6l-8 -3l-1 -6q-4 -2 -7 -8l-3 -10l-14 -26l-4 -8h-4l-7 -18l-10 -17l-3 -11l-2 -4l-1 -3l-5 -7l-5 -10l-2 -6l-2 -5l-7 -17l-14 -23l-9 -19l-5 -13l-9 -19l-5 -18l-8 -16l-5 -19l-7 -11l-5 -4 l-19 -1l-21 3l-14 -4l-13 4l-14 -1z" />
            <glyph unicode="Y" horiz-adv-x="441" d="M10 650l8 9h19h18l8 3l10 -4l13 2l12 -3l12 -30l2 -9l5 -2l1 -7l17 -40l17 -40l44 -90l6 -19l7 -12h3l7 -17l9 -2l8 5l6 17l3 1l4 13l37 86l6 17l3 1l8 21l7 13l5 3l-1 16l5 9l3 2v3q1 2 1 4l1 11l14 30q0 1 0.5 1t0.5 1q1 6 3 6l13 11l14 1l15 -2l12 1l15 1l4 1l4 -2 l11 -5l1 -9v-2q0 -3 -2 -7l-5 -7l-19 -48l-6 -7l-7 -19v-10q-8 -5 -8 -16l-16 -30l-4 -17l-11 -15l-26 -60l-13 -24l-39 -88l-9 -30l2 -13l-5 -6l4 -10v-2q0 -3 -3 -4l3 -41l-1 -12v-20l2 -14l-3 -10l3 -25v-1l2 -3h-2l-3 -17l5 -21l-3 -19l2 -20l2 -9l-7 -16l-5 -3l-18 -2 h-12l-36 2l-4 3l-3 12l-1 36l1 23l-2 15v14l2 20l-1 7l2 15v5q0 2 -1 2l-1 3v29v66l-3 32l-25 55l-7 12l-8 18l-6 5l-4 14l-21 38l-2 10l-11 20v2l-8 13l-7 19l-7 13l-2 2l-1 1q0 2 2 4l-3 6l-17 34l-7 16q-1 2 -5 14q0 2 -2 4l-9 11l-11 31l-4 7l-2 2q-2 4 -2 7z" />
            <glyph unicode="Z" horiz-adv-x="438" d="M10 13l6 14l11 19l-2 3l13 24l11 10l-2 9l6 14l8 8l21 43v4l19 28l8 22l8 13q3 7 5 7l4 3l5 16l20 42l14 29l3 13l15 25l27 57l8 14l6 13l6 17l6 11h1q3 0 4 6l4 7l10 23l16 23v12l11 17l5 15q1 1 -2 4l-3 3l-1 1l-8 -3h-15l-10 3q-2 0 -3 1t-2 1q-2 0 -6 -4l-18 5l-4 -5 l-16 1h-22l-3 2l-25 -3l-3 1h-17l-15 1l-14 -3l-16 2l-20 -3l-25 2l-4 7l-1 19l-2 12l2 30v6l14 5l59 -1l3 -1l4 1h21l2 -1l29 1l78 1h13l7 -2l2 1h2v-4l11 2l6 2h32l2 -2l6 1l25 -1l17 2l13 -2l27 2q4 0 9 -7q2 -4 2 -5v-1q-1 -1 -1 -2l-6 -13l-10 -22l-3 -2l-9 -20l-4 -4 l-29 -55l-23 -51l-18 -28l1 -11l-12 -5l1 -7l-6 -17l-10 -17l-23 -49l-7 -10l-10 -25l-12 -22l-3 -7l-2 -2l-11 -25q-6 -14 -11 -18v-5l-6 -10q-1 -2 -2.5 -4.5t-2.5 -4.5l-17 -35l-4 -14l-24 -48l-8 -19l-6 -12q4 -4 7 -4l8 1h15l17 -2l11 2q1 1 2 1t7 -2q5 -3 8 -3 q1 0 6 3q1 1 4 1l38 -1l15 1l20 -5l17 4h36l27 1l26 -1h14q1 0 4 -1.5l5 -2.5l1 -14l1 -32l-2 -5l1 -13v-1q0 -10 -12 -10h-2l-11 1l-12 -1l-12 3l-103 -1l-102 -1l-16 1l-28 -1l-4 -1l-17 3l-41 -2l-10 3l-34 -1l-11 2z" />
            <glyph unicode="[" horiz-adv-x="313" d="M99 359l2 38v38v60l1 12v18l-1 39q-2 4 1 4h1v11l-1 3v5v2l1 9l-2 4l1 51l-1 46l3 22l12 5l6 -2l10 2l3 -2q2 0 5 3l4 -1l36 -1l8 2l1 -2l16 1l28 -2l12 2l12 -1l11 3l12 -9l1 -14v-34l-3 -14l-20 -2h-20l-6 2h-29h-10q-4 0 -8 1q-4 -10 -4 -11v-14l-2 -23l3 -23l-2 -23 l-1 -22l2 -12l-1 -25l1 -19v-25l-1 -32v-97l2 -49v-49l-2 -5l-2 -9l5 -4l-4 -13l4 -5v-9l-1 -11l2 -14q-3 -4 -3 -7q0 -1 3 -6l-3 -8v-15l-2 -5l3 -7l-1 -14q1 -3 1 -7q1 0 1 -3q0 -2 -2 -4h-1l3 -13l-4 -27l4 -9l-1 -14l1 -12l8 -2l13 3q6 -4 8 -4t4 1l11 2l15 -3h2h2l2 1 q-1 0 -1 1t1 1h4h20l6 -4l-1 -22l2 -6l-1 -6l-2 -19l1 -17h-16l-7 -1l-21 -1h-10l-3 1l-17 -1l-12 3l-9 -2l-11 -2l-2 -1l-12 5l-4 -2h-8l-14 -1l-5 2l-17 -1l-8 9v19v7v6l1 13l5 8l-4 7v16l-2 10l2 71l-1 14v26l1 5l1 18l-3 6l1 2l-1 9l1 69v4v11l5 3l-6 13l5 13 q-5 11 -6 31q0 17 -1 31z" />
            <glyph unicode="\" horiz-adv-x="408" d="M22 708l3 10q2 6 4 6l3 1l6 3l32 -1l16 3l4 -1l9 1l11 -9l5 -20l9 -12l2 -12l5 -10l5 -22l4 -3l2 -10l4 -15l6 -15l3 -15l4 -9v-8l8 -10l1 -4l3 -18l5 -2l8 -30l10 -27l6 -7l-1 -7l6 -9v-5l9 -24l1 -9l3 -6l6 -12l3 -18l4 -8l4 -9l15 -36l3 -15l7 -14l1 -14l7 -8l3 -9 l13 -34l2 -12l3 -11l6 -6l3 -18l6 -18l14 -36l4 -6l6 -24l13 -31v-5l5 -9l2 -6l5 -13l3 -12l11 -26l2 -1l1 -12l5 -4l4 -12l5 -9l4 -9l-3 -7l1 -1l-10 -9h-14l-12 2l-23 -3l-9 4q-4 2 -5 -1l-4 -2q0 -1 -3 -1q-6 0 -10 9l-6 22l-4 8q-2 4 -2 6t1 3l-2 3l-2 11l-3 9l-3 9 l-7 18l-6 17l-5 18l-7 18l-4 9l-3 9l-8 18l-5 18l-6 11l-3 10l-4 8l-3 18l-4 8l-8 12l-2 12v10l1 4l-10 3l-2 3l3 14l-9 4l-1 17l-6 14l-4 7l-6 28l-3 4l-15 44l-4 8v12l-8 7l-4 18l-10 19v5l-7 19l-8 14v13l-6 11l-3 7l-3 9l-2 2l-7 24l-6 15l-5 7q0 1 -1 3v1l-10 29l-4 13 l-2 2l-7 21l-1 6q-2 6 -6 9l-2 4l-2 11h-1l-4 7l-7 27z" />
            <glyph unicode="]" horiz-adv-x="313" d="M32 671v34l1 14l12 9l11 -3l12 1l12 -2l28 2l16 -1l1 2l8 -2l36 1l4 1q3 -3 5 -3l4 2l9 -2l6 2l12 -5l4 -22l-1 -46v-51l-2 -4q0 -3 1 -9q1 -1 1 -2v-3l-1 -2l-1 -3l1 -11q2 0 2 -4l-2 -39v-18l1 -12v-60v-38l2 -38q-1 -14 -1 -31q-1 -22 -6 -31l5 -13l-6 -13l6 -3 l-1 -11v-4l1 -69l-1 -8q0 -2 1 -3l-3 -6l1 -18l2 -5v-26l-2 -14l2 -71l-2 -10l1 -16l-5 -7l6 -8v-13q1 -2 1 -6v-7l-1 -19l-8 -9l-17 1l-5 -2l-13 1h-6q-1 0 -7 2l-12 -5l-2 1l-11 2l-9 2l-12 -3l-17 1l-3 -1h-10l-21 1q-26 2 -26 11q0 1 4 7l-2 19l-1 6l2 6l-1 22l6 4h20h5 v-2l5 -1l15 3l11 -2l4 -1q2 0 8 4l13 -3l8 2l2 12l-2 14l4 9l-3 27l2 13h-1q-2 0 -2 5l1 2l1 7l-1 14l3 7l-2 5v15l-3 8q3 5 3 6q0 3 -3 7l3 14l-2 11v9l4 5l-3 13l4 4l-1 9l-2 5l-1 49l2 49v97v32v25v19l-1 25l2 12l-1 22l-2 23l3 23l-2 23v14q0 1 -4 11q-4 -1 -7 -1h-11 h-28l-7 -2h-20l-20 2z" />
            <glyph unicode="^" horiz-adv-x="485" d="M33 361l179 351h58l182 -351h-91l-119 258h-2l-116 -258h-91z" />
            <glyph unicode="_" horiz-adv-x="500" d="M0 -133h500v-73h-500v73z" />
            <glyph unicode="`" horiz-adv-x="378" d="M99 826l4 9q1 1 4 1h2l8 -2q1 0 4 3l12 2l10 -1l42 2l11 -4l17 -23l4 -2q1 -1 3 -4l3 -8l21 -20l5 -9q3 -5 8 -7q2 -2 3 -2l5 -8v-1q0 -3 4 -5l9 -5l1 -12l-3 -3l-15 -3h-64l-16 13l-9 11l-6 10l-12 11l-12 9l-9 11l-6 5l-8 13l-8 7z" />
            <glyph unicode="a" d="M10 12l7 48l17 71l4 10l1 21l7 19l6 11l-2 15l9 34l8 38l17 56l3 20l10 38l2 17l9 17v11l23 89l-1 6q0 1 3 4l5 16l7 19v15l8 14v14l8 15l3 18l3 6l16 7l18 -1l17 3l18 -4h2l17 3l18 -7l7 -17l8 -26l22 -75l6 -13l3 -17l7 -14l8 -38l8 -21l5 -29l5 -12l3 -19l5 -13l2 -14 l6 -16l2 -15l9 -31v-7l4 -12l2 -15l4 -9v-15l8 -13l18 -83l5 -13l5 -19l3 -18q0 -3 2 -7q1 -3 2 -6.5t1.5 -5t0.5 -2.5l1 -16l8 -33l-6 -10l-13 -1l-5 -1l-15 2h-38l-9 4l-1 3l-2 11l-3 2l1 31l-6 17l1 14l-7 22l-27 117l1 12v7q0 6 -6 8l-5 21l-1 13l-6 16l-4 26l-3 10 l-3 5l-20 2l-29 3l-19 -3l-20 2l-15 -1l-10 1l-7 -3l-6 -9l-18 -71l-8 -42v-7l-10 -37l1 -2l-2 -20l-4 -9l-1 -22l-8 -17l-1 -20l-9 -34l-3 -45q0 -1 -4 -3q-8 -2 -9 -4l-15 2l-2 1q-2 0 -3 -2h-1q-1 -1 -2 -1l-3 3l-13 -2l-10 2l-15 -3l-8 5zM178 401q0 -6 4 -6l5 1h11 l7 -4l16 5l38 -1l9 4l-1 16l-2 4l-17 5l-12 -3l-16 1l-17 -3l1 4l-16 -2l-8 -8zM192 477l2 -5h18l11 -2h12l19 4l-3 15l-21 72l-5 23h-4l-7 -27l-5 -23l-5 -15l-8 -31z" />
            <glyph unicode="b" horiz-adv-x="406" d="M30 580l3 33l-1 3l1 18l4 16l3 3l16 8l6 1l15 -1l7 2h14l13 -4l4 2l2 2l9 -1l24 1l21 -3h29l29 -2h5h5l11 -7h9l6 -5l14 -5l22 -21l2 -4q0 -2 4 -2l9 -14l4 -14l4 -6l-1 -4l4 -15l-1 -12v-17l-3 -12l-2 -11q-2 -9 -6 -13l-4 -4l-7 -14l-7 -9l-27 -22l-7 -6l2 -3v-6l3 -3 l2 -2l15 -14l12 -12l13 -16l7 -6l12 -19l12 -18l10 -12l6 -14v-4l4 -5l4 -12l8 -16l11 -56l1 -7l1 -16v-8v-11l-2 -16l-5 -19v-7l-9 -23l-4 -1l-2 -11l-24 -31l-19 -21l-10 -2l-7 -9l-14 -6l-4 -6l-8 -2l-8 3l-1 -6l-14 -6l-15 -6l-11 2l-10 -7l-14 -3l-26 -3l-57 -3l-17 1 l-15 1l-15 -1l-10 2l-7 2q-1 -1 -3 -1q-4 0 -6 1l-7 4l-5 7l-1 15l-1 58v12q2 2 2 4l-2 4l1 36l2 11l-2 16l3 16l-5 12l2 22l-1 18l1 15v14l1 11l-3 6v3l1 40l-1 13l3 14l-3 15l2 15l1 5l-3 112l2 20l-4 18l6 15l-6 13l2 12zM108 517q0 -3 1 -4l4 -8l-1 -41l3 -16l9 -3l3 1 l13 4l14 6l6 -1l9 7l16 11l13 4q2 2 2 3t-1 2l25 15l16 18l2 2l5 10l2 8l-2 19l-5 4l-3 10l-10 9l-32 5h-16l-15 4h-44l-10 -4l1 -58zM111 190l7 -10l-3 -17v-38l-1 -14l-1 -4l3 -2l-2 -14l1 -12l4 -4l16 -5l24 -1l10 3h10l29 8l14 5h8l13 7l1 4h2l10 7l6 -1q1 1 2 3l11 14 l10 9l17 33l5 29l-1 26l-2 21l-4 15l-3 15l-1 2l-6 14l-9 16l-26 39l-9 9l-12 14l-3 2l-4 6l-8 4v2q0 2 -5 5l-20 12h-10l-66 -26l-5 -11l1 -49l-2 -13l3 -6v-21l-2 -17l5 -18l-4 -4v-10l3 -16z" />
            <glyph unicode="c" horiz-adv-x="363" d="M20 384l2 10v17l2 20l4 22v14l7 10l2 16l18 49l18 30l5 12l7 4l5 10l10 4l2 7l8 6l20 16l11 3l3 3l11 7q4 4 10 4l7 2l15 4l15 4h12l10 4l17 1l13 -5l5 4l22 2l54 -7l8 -4v-39v-13l1 -22l-11 -5l-29 6l-6 2l-8 7l-5 -4l-4 -1l-12 -1l-8 3q-2 0 -4 -1l-10 -2l-5 3l-2 -2 l-18 -4h-10l-8 -7l-16 -5l-25 -17l-11 -11l-18 -28l-16 -34l-3 -14l-5 -14l-4 -26l-2 -14l-3 -8q0 -1 2 -5l-2 -12l-2 -2l1 -3l1 -15l-1 -12l2 -17l1 -36l1 -12l1 -2q1 -3 1 -5q1 -1 1 -5l2 -16l5 -15v-8l7 -18q1 -3 2 -8q0 -2 1 -4l2 -10l14 -27l19 -32l24 -22l13 -10 l10 -6l3 -8l5 1l16 -3l18 -11l3 2h3l14 -6l10 7l13 -7q5 -3 11 -3h3l29 5l12 -4l4 -3l3 -15l-2 -48l-3 -4l-12 -5l-14 1l-5 -2l-8 1l-22 -1l-13 2l-9 1q-2 0 -3 -1l-17 3l-43 11l-4 3l-10 3l-8 8l-14 3l-16 14l-12 4q-8 2 -8 7q1 1 1 2l-29 29l-11 12l-7 11l1 6l-2 3l-13 16 l-9 17l-8 22l-8 14l-2 15l-7 18l-8 41v18l-4 9l1 10l1 8l-5 20v18l1 11l1 10l-2 3z" />
            <glyph unicode="d" horiz-adv-x="412" d="M30 627q3 3 3 5l-1 6l2 14l2 4l14 5l24 2l42 -1l18 1l30 -1h15l17 -3l13 1l30 -4l12 -8l15 -3l14 -7l6 -9q1 1 4 1q4 0 10 -4l21 -18l1 -8l6 -3l17 -21l21 -41l8 -20l3 -22l5 -11l-1 -13l2 -4q3 -5 3 -10t-6 -9l1 -4l9 -11v-22l2 -17v-39l-2 -5l1 -19l-3 -17l-3 -29v-2 l-2 -1l-2 -17l-3 -7v-17l-22 -63l-7 -14l-7 -11l-6 -14l-3 -3l-6 -8l-6 -12l-6 -7l-7 -11l-7 -8l-5 -10l-8 -4l-13 -15l-5 -2l-7 -10q-7 1 -8 -5l-11 -3l-10 -7h-11l-9 -9l-7 -4l-14 -4l-15 -6l-29 -6l-1 -1l-31 -3l-17 -1l-7 2l-3 -2h-20l-14 1l-15 8l-3 38l1 11v34l3 14 l-4 15l7 17l-6 12l-3 12l2 7l1 34l-2 32l-2 33l3 13l-3 12l2 13v15l1 16l-1 12l3 20l-3 4l-2 27l1 17l-2 10l5 12l-7 10l3 19v54l-2 55v19l-1 6l1 5l1 12zM113 194l4 -16l1 -31v-35v-19l2 -8l-1 -2l6 -6l16 -2l27 9l19 7l8 7l12 6l10 9l2 4l11 7l19 20l8 13l14 23l6 13l3 4 l6 23l7 11v16l7 10l1 25l8 7v12l-1 11l4 16l1 54l3 15l-4 41l-3 4l-3 32l-12 31l-11 20l-1 5l-8 8l-3 4l-5 3l-2 4l-3 2q0 1 -1 2l-11 10l-5 5l-7 2l-6 3l-18 8l-17 4l-3 2l-4 -2l-18 1l-19 4l-10 -1l-15 -1h-9q-5 -2 -5 -5l3 -50l-2 -8l3 -8l-3 -12l2 -4l1 -15l-3 -5l2 -4 l1 -11l-2 -12l1 -27l1 -3l-1 -17l-2 -3l1 -6l1 -21l-1 -23v-40v-60l1 -17l-2 -11l4 -17z" />
            <glyph unicode="e" horiz-adv-x="303" d="M30 9v18v7v6l1 13l6 8l-5 7v16l-1 11l1 70l-1 14v26l2 5v18l-3 6l1 2l-1 9l1 69l1 3l-1 11l5 4l-6 12l6 14q-6 10 -6 17l1 58l1 12v18l-2 39q0 4 1 4h1l1 11l-2 3v5v2l1 9l-2 4l1 51l-1 46l3 22l12 5l6 -2l10 2l4 -2q1 0 4 3l4 -1l37 -1l8 2v-2l16 1l28 -2l12 2l12 -1 l11 3l12 -9l1 -14v-33l-3 -13l-20 -3h-20l-6 3l-29 -1h-10q-1 0 -7 2l-2 -6t-2 -5l-1 -2v-17v-12q4 -4 6 -4l13 2l15 -1q7 0 11 -4l2 1q1 0 3 -2l15 6l5 -4l16 4l20 -1l41 1l21 -1l2 -2l2 -12l1 -23l-2 -12l2 -5l-5 -15l-15 -1l-36 1l-35 -2q-3 4 -4 4l-9 -2l-15 -1h-26 l-20 1l-9 -7l1 -12v-22v-19v-23l-1 -32l2 -74l-2 -5l-2 -9l5 -4l-4 -13l5 -5l-1 -9l-1 -10l2 -15q-3 -5 -3 -7t3 -6l-3 -8v-15l-2 -5l3 -7l-1 -14l2 -6v-4q0 -3 -2 -3l-1 -1l3 -13l-3 -27l3 -9l-1 -14l2 -12l7 -2l13 3q6 -4 8 -4q2 1 5 1l10 2l15 -3h2l4 1v1v1l18 1l25 -1 l3 -2v3l24 -2l14 2l9 -4l2 -17l-2 -18l1 -2l-1 -7l1 -14v-6l-8 -7h-26h-16l-14 -2l-4 2l-7 -1l-34 -1h-9l-4 1l-17 -1l-12 3l-9 -2l-11 -2l-2 -1l-12 5l-4 -2h-8l-13 -1l-6 2l-17 -1z" />
            <glyph unicode="f" horiz-adv-x="312" d="M30 581l3 16l-2 14l2 13l-2 24l5 8l17 5h41l4 -1l13 1l7 -3l8 5l60 -1l3 -3l5 3h7l13 1l13 -2l1 -19l1 -30l-3 -14l-2 -4h-5l-12 3l-15 -3l-2 2l-43 1q-1 1 -2 0t-3 -1t-3 1l-5 2q-2 0 -2 -3v1l-14 -1l-2 -30l3 -10l-1 -5q1 0 3 1h2q4 0 5 -4l5 1l13 2q1 0 3 -2 q1 -1 2 -1h1l2 1q5 2 6 1l13 -3l16 3h12h43l24 3q0 -3 2 -3q1 1 1 2h22q1 0 1 -1q1 -1 4 -2l2 -1q1 0 2 -1v-2v-52l-6 -9l-3 -2h-31l-10 4l-4 -1v-3l-58 -1l-9 7q-6 -6 -9 -6t-6 4l-1 -3l-25 -2l-9 1l-11 -2q-2 0 -5 -7q0 -1 -1 -1l1 -11l-2 -1l2 -19l-2 -9l3 -3l-1 -27 l-2 -17l1 -17l-1 -16l2 -4l1 -99l-4 -12l6 -7v-5l-5 -11q4 -3 4 -7q0 -9 -7 -10l7 -10l-1 -73l3 -9l2 -75l-1 -13q0 -15 -6 -15l-15 -3l-35 1l-18 -1q-7 0 -9 8l-1 30l2 15l-2 6l3 35l-2 13l1 31l-2 17l1 31l-2 18l3 9q0 2 -3 5l1 11l2 7l-3 10l2 32l-1 56l1 15l-2 15l1 20 v18l-2 21l4 4l1 10l-2 2v-4l-4 4l1 10l1 60l-3 5l1 14l-2 18v15l2 6z" />
            <glyph unicode="g" horiz-adv-x="394" d="M20 327v36l2 31l1 32l6 32l14 46l12 29l9 13l4 11q3 7 8 9l2 1l6 13l22 21l4 5l2 1l12 11l17 9l8 6l46 18l9 2l8 2l16 1l9 4l13 -1l11 2l8 -3l15 4l29 -5l12 2l17 -2l11 -6q4 -2 4 -6v-2l-2 -5l-1 -10l4 -4l-1 -23l1 -8l-2 -13h-1l-2 -2l-13 1q-1 0 -2 1h-2l-7 5h-3 q-3 0 -4 -2l-14 4l-5 -1l-1 2h-40l-14 -1l-16 -4l-28 -9l-16 -9l-14 -9l-11 -13l-4 -1l-6 -7l-5 -5l-2 -2v-3l-8 -12l-7 -17l-2 -1l-8 -13l-2 -14l-4 -14l-5 -6l1 -3l1 -13l-6 -14l-5 -54l-1 -29l7 -34l-2 -11l10 -46l15 -47l2 -8l4 -4l6 -12l9 -13v-12l10 -11l4 -2l14 -21 l12 -11l23 -13l32 -12l18 -3l13 1l5 14v18l4 18l-3 13l2 5l-2 15l-1 8l4 14l-4 7l3 11l-2 27l3 9l-4 29l1 17l-2 15l1 28l-2 30l1 14v18l1 5l-3 17l2 30l8 9l12 4l19 -2l19 2l11 -3l7 3l6 -6v-7v-31l-1 -13l-2 -11l3 -12l-1 -13l-1 -34l2 -11l-3 -34l3 -6l-1 -17l2 -26 l-2 -27l1 -5l1 -27l-1 -34v-33v-15v-52l-2 -2l1 -7l2 -17l-6 -10q-8 -1 -10 -4h-5l-13 -1h-17h-17l-14 2l-12 -1l-18 4l-16 2l-9 4l-20 2l-15 9l-5 -1l-13 9l-14 7l-14 10l-13 11l-24 22l-15 19l-5 14l-13 13l-1 8l-3 3l-7 11l-5 11l-9 13l-19 62v15l-5 9l-1 24l-3 9l1 15 l-3 4z" />
            <glyph unicode="h" horiz-adv-x="423" d="M30 6l1 42l4 14l-5 16v9l4 7l-3 18l1 15l-2 14l4 14l-2 18l1 12h2l-1 3v18l-1 68l-2 5l2 13l-1 14l1 28v26l-2 26l4 10l-4 12l4 12l4 11l-7 15v32v55l1 30l2 12l-4 13l4 19l-2 13v22l2 13l8 7l17 1h7q1 0 4 3l12 -4h28l4 -7l2 -15l-4 -13l3 -2l1 -4l-2 -18l2 -22h2l2 -8 l12 -3l13 2l11 -6l13 4l14 -2l39 1l31 1l16 -1h19l12 6l6 12l1 15l-2 14l1 10l-1 12v16q4 3 5 6l8 1l15 2l17 -3l11 2l6 -2q2 1 3 3l9 -3q2 0 4 -2q3 -3 3 -7l-2 -4l4 3l-3 -17l1 -58l-5 -17l5 -15v-5q1 -1 2 -3l-1 -14l-3 -3l-1 -12l3 -12l-1 -40l2 -42v-26l1 -15l-1 -26 v-30v-45l1 -21l-3 -11l5 -6l1 -17v-12l-3 -10l3 -6h-3l4 -14v-69l-2 -12l-1 1l3 -24v-20l-1 -30l-2 -13l-8 -5l-5 -1l-18 1l-38 -1l-9 7l-2 15l3 37l-4 10l6 18l-3 7l2 15l3 5q-1 6 -4 6l-1 56l1 18l-2 9l1 33l-3 14l4 6l-3 16l4 18l-3 6v10l-1 15l2 11l-1 21l1 21l-1 16 l-4 12l-17 3h-15l-16 1l-10 -2l-15 5l-19 -3l-18 3l-10 -2l-15 1l-34 -2h-9l-2 -1h-4q-6 0 -8 -8l-1 -9l3 -11l-2 -16v-80l-2 -16l2 -20l-1 -32v-36l-2 -21l1 -14l-1 -9l2 -25l-2 -14l2 -23l-1 -25l2 -6q0 -1 2 -9q-1 -1 -2 -12l-1 -9l-7 -8l-19 -1l-46 1zM111 486l1 -9 q2 -7 11 -7l11 1l5 -3l7 3h15l12 -5l11 6l10 -1l37 -1l12 -2h9v1h11l14 2h19l13 6l-2 6l1 14q0 3 -1 4l-2 2l-2 11l-14 2l-21 -1l-4 1l-18 -2l-4 2l-15 -4l-28 1l-49 -1q-3 3 -5 3l-5 -1l-14 2l-11 -4v-23z" />
            <glyph unicode="i" horiz-adv-x="149" d="M30 605l2 12l-2 21v3l5 12l-4 -2v2q0 6 8 8h9h19q1 0 2 -1l8 1h19l4 2q14 -1 14 -6l1 -13l-2 -16l2 -14l-4 -18l2 -17l-2 -10l1 -14l1 -50v-77v-10l-3 -8l5 -28l-1 -85v-16l-1 -30q4 -5 4 -12l-1 -54v-55l2 -22l-2 -17l2 -15l-2 -6l1 -34l3 -11v-17l-4 -7l-10 -1l-12 -1 l-17 1l-31 -2h-2q-10 0 -10 7v1l2 19v33l2 17q0 3 -4 8v11l3 13l-1 15l2 6l-3 25l2 24l-2 22l2 16l-1 46l-1 35l-2 19l3 33l-3 40l2 20l-2 28l-2 74l3 16l-2 27l1 25l-2 4v19z" />
            <glyph unicode="j" horiz-adv-x="254" d="M10 22l1 17v14l-1 10l2 5l-1 7q0 1 2 3q1 4 4 4l17 -2l12 -2l1 -2q1 -1 3 -1h2l14 5l12 -1l14 7l16 9l6 9l9 16l10 30l2 35l3 11v15l3 93l3 11l-3 19l2 16l-1 15l-2 4l2 42l-1 11v21l3 34l-4 8v25l2 15l-3 17l3 12l-4 11l2 18v4l-1 3l-1 53v12l10 7l23 -3l13 2l23 -1 l15 -6l1 -21l-1 -20l-1 -10l1 -21l2 -9l-4 -12l2 -41l1 -63l1 -16l-2 -10l2 -14l-3 -40l-1 -148l1 -10l-3 -12l2 -10l-2 -21v-15l-4 -31l-5 -14l-2 -11l-6 -11l-1 -14l-7 -8l-9 -14l-5 -10l-11 -12l-14 -8l-4 -6l-8 -7l-10 -6l-1 -1q-3 0 -7 3l-8 -5l-2 -4l-48 -4l-10 2 l-3 -2q-1 0 -5 2h-18l-12 4q-7 0 -7 2z" />
            <glyph unicode="k" horiz-adv-x="408" d="M30 7l2 45l-1 35l2 15l-2 15l2 16l-2 11l2 36l-2 15l1 15l-1 17l2 15l-1 29v12l-2 12v17v15l5 33l-5 11l3 28v10l1 25l-1 8l2 2l-3 16v15v3l1 19l-3 17q1 1 1 2l1 4l1 10v23l1 8q0 2 -1 2q0 1 -0.5 5.5t-0.5 7.5l1 31v16l-1 1l1 2l-2 6l-1 12l2 4v12l15 -1h2q4 2 10 2 q1 0 2 -1l2 -1l43 1l4 -1l5 -11l-2 -8l1 -17l-4 -13l2 -8v-11l-1 -33l1 -70l-1 -15v-8q0 -4 5 -8q2 -2 3 -4l11 4q0 5 1 6l9 5l6 9l6 2l5 9l10 11l5 9l13 14l10 11l3 5q0 1 4 3l2 9l8 9l5 11l4 3l14 26l6 10v4l2 2l3 4l4 4q2 1 4 9l3 13q0 1 3 4q2 4 2 8l13 2l29 -1l39 -1 q2 -7 3 -9l-4 -16l-10 -13l-5 -15l-9 -17l-2 -5l-11 -14l1 -7l-10 -14l-2 -1q-3 0 -3 -3l-1 -3l-35 -55l2 -14l8 -15l7 -16l8 -25l15 -32l1 -6h2l1 -15l11 -30l14 -46l7 -16l7 -30l4 -11l8 -17l9 -36l1 -15l7 -19l3 -11l7 -16l3 -27l4 -13l5 -9l6 -33l3 -26q-2 -2 -2 -5 l-12 -3h-22l-11 -1l-12 3l-14 -3l-11 4q-6 3 -6 11l-1 8l-7 55l-5 18l-1 17l-6 8l-6 33l-6 24l-8 25l-6 30l-12 30l-4 12l-2 14l-7 13l-4 20l-12 34l-5 5l-9 28l-7 17l-2 6h-9l-26 -23l-18 -18l-4 -1l-11 -17h-3q-4 0 -7 -4l-6 -7l-4 -16l1 -48l-2 -21l2 -31v-74v-6 q0 -3 3 -6l-4 -13l4 -11l-2 -30l3 -22v-47l-3 -13l-10 -5l-19 3l-34 -1l-15 1z" />
            <glyph unicode="l" horiz-adv-x="361" d="M29 574q0 3 1 5q1 0 1 1q2 2 2 4v4l-1 11l-2 32v22l4 6l13 1l9 -2l2 2l14 2l2 -3l4 2l19 -2l11 1l7 -4l2 -28l-2 -47l1 -15l-2 -25v-21l2 -14l-3 -12l2 -12v-34v-51l-1 -15l1 -24l2 -43l-1 -32v-15l-1 -11l3 -14l-4 -18l2 -81v-34l2 -1l-2 -9v-11l2 -11l10 -2q4 2 8 2 q3 0 4 -1l9 -4l14 4l46 -1l15 2l24 -2l13 2l10 -3l10 1l12 -3l11 5l17 -1h15l12 -4l2 -5l-1 -35q0 -1 1 -1q0 -1 1 -2q1 0 1 -2q0 -1 -2 -3v-2l-2 -15l-6 -8h-20q-4 4 -7 4h-1l-10 -4l-14 1l-10 -1h-16l-3 2l-11 -1l-60 -2q-1 0 -2 1q-2 2 -4 2h-1q-1 -1 -2 -1l-3 -1l-12 -3 l-30 2h-17l-10 3l-15 -5l-14 1l-10 -1l-7 3h-17l-10 4l-3 11l-1 16l3 25l-1 65l1 30l-1 31l2 16l-3 15l2 31l-3 18l4 11l-2 9l1 43l-1 43l4 13l-2 12l-3 43l3 9l-1 14l-3 14l5 13v1q0 4 -6 9l-1 29l1 23l1 14l-1 3l1 1l-2 4q-1 1 -1 4z" />
            <glyph unicode="m" horiz-adv-x="538" d="M29 203q0 4 5 9v6h-2v17l2 16l-2 22l2 28l-1 4l-1 12l2 8l-2 47l2 14l2 9l-4 5l3 14l-4 17l3 17l-2 8v40l4 16l-3 24l2 32l-1 14l4 16l-2 21v35l7 5l11 1l1 3l1 -4l25 1l6 -2h31h12l2 -3l7 -7l5 -11l9 -9l5 -10l11 -8l4 -12l9 2l1 -13l3 -1l1 -2q0 -1 3 -4l5 -8l9 -5 l21 -29q4 0 8 -5l9 -13l10 -9l6 -8l7 -2q2 -7 11 -7l1 1l7 9l13 19l8 5l2 6l6 10l8 7l8 11l11 12l23 29l11 8l5 9l9 9l-2 5l4 8l11 7l-2 5l19 4l28 -1l2 2l17 -2l16 1h11l2 -5l4 1l2 -14l-2 -39v-1q0 -5 5 -9l-5 -12v-19l3 -9v-4q0 -4 -1 -6q-1 -1 -1 -2v-15l2 -6l-1 -20 l-2 -14l3 -19l-1 -31l2 -22l-3 -17l4 -15l-1 -14l-2 -5l4 -23l-2 -16l2 -17l-1 -18l2 -12l-2 -18l2 -4l1 -13l-4 -14l2 -12l-1 -26l4 -15l-3 -15l3 -11l-1 -36l3 -103l-3 -10h-16h-53l-7 -1l-3 7l-1 18l3 11l-3 11l2 15l-2 14l3 15l-2 27l-2 32l3 8l-1 35v16l-2 5l1 34 l-1 51l-2 3l2 32l-2 20v34l-1 17l-1 24l-3 10q0 3 4 4v19l-3 13l4 12l-4 13v15v14q0 5 -4 5q-3 0 -6 -3l-3 2l-3 -3l-4 -3l-3 -5l-7 -7l-2 -4l-1 -2l-1 -1l-11 -12l-2 -5l-9 -6l-7 -11l-1 -2l-7 -7l-14 -19v-3l-5 -2l-9 -6l-11 -18l-21 -25v-1l-6 -6q-2 -2 -3 -6l-11 -2 l-4 4l-8 3l-8 12l-12 9l-17 24l-11 10l-7 14l-16 16l-6 11l-3 3l-1 3l-10 6q-4 1 -6 6l-4 7l-5 5l-9 12l-10 9l-3 7l-4 2l-1 -3l-3 3q-5 -5 -5 -7l1 -2v-2l-2 -4l1 -17l-1 -11l3 -3l-1 -3l-2 -11l3 -8l-3 -21l2 -19v-16l-1 -6v-16l-1 -8v-10v-14l-1 -12l1 -3v-18l1 -4l-2 -5 l1 -60l-3 -35l3 -70l1 -30l-1 -14l3 -17l-2 -15l1 -36l-1 -13l1 -25q-5 -1 -9 -5h-12l-6 2q-3 0 -6 -2l-10 1h-17l-10 1l-2 -1h-3l-5 1l-5 10l2 3q-2 1 -2 5v43l4 28l-3 4l1 16v35l-2 4l3 16l-2 36l-1 -1q-1 0 -1 1v3z" />
            <glyph unicode="n" horiz-adv-x="463" d="M32 566l2 18l1 20l-3 6l1 10h1q2 2 2 3q0 3 -3 6v21l-1 5q3 1 3 2v1l7 5l7 -1l15 1l8 -1l4 1h5h16l3 1l18 -5l8 -8l8 -5l34 -30l36 -30l3 -12l3 -3l12 -1l15 -14l5 -7l7 -3l7 -5l1 -5l10 -3l7 -14l14 -6l44 -41l11 -9l1 15l3 10l1 25l-2 5l-1 52l-3 11l5 10v5l-6 13l2 11 l-3 3l4 14l-1 3l1 14l6 7l14 -2h10l9 3q1 -1 2.5 -2t2.5 -2h13l5 4l11 -2l1 -5l5 -1v-66l-2 -6l2 -19v-68l-2 -21l2 -23l-2 -71l3 -11l1 -24v-69l2 -85l-3 -12l5 -20l-2 -27l3 -18l-2 -16l2 -16v-33l3 -33l-3 -12l-8 -4v-1h-13q-2 2 -3 2q-1 -1 -1 -2h-18l-5 2l-2 -2h-23 l-2 2l-4 1q-2 0 -2 9l1 10l2 12l-5 10l5 16l-3 18l3 13l-3 15l3 11l-2 31v13l4 -1l-5 18l1 16l-2 86l-2 9l2 7l-2 43l-5 16l-5 13l-25 21l-2 5l-6 6l-1 2l-8 5l-7 6l-9 12l-26 21l-9 11l-13 9l-9 10l-14 12l-12 8l-12 12l-4 5l-7 5l-6 4l-19 15l-2 3l-21 14h-5l-8 8l-1 -68 l3 -7l-1 -17l-2 -27l3 -14q-2 -2 -2 -9v-4l2 -138l-1 -29l3 -20v-16l-2 -12l2 -56l-2 -11l2 -4v-17l1 -73l1 -21v-1q0 -18 -13 -18l-25 -1l-9 1l-4 -1l-5 1h-20l1 1q0 2 -5 4l-3 9v39l2 29l1 53q0 2 1 3t1 3q0 3 -1 4q-2 3 -1 3v9l3 3l-4 9v8l3 15l-1 13l-1 55l2 14l-4 7 l1 10l2 3l-4 15l3 26l-2 12l3 11l-3 9v29l1 7l-1 68v5v2q0 3 1 5l1 13q0 12 -4 13l2 6l-1 14l-1 2l1 17z" />
            <glyph unicode="o" horiz-adv-x="433" d="M20 428l2 14l-1 2v7v15l2 8l-1 10l6 32l11 37q0 2 6 5l2 2v9l14 16v4l10 12l13 16l15 11l26 16l14 5l14 6l25 5l35 2h17l13 -2h3l1 1q1 0 2 -1l10 1l17 -4q3 0 3 -2l1 -1q0 -3 8 -3l9 1l11 -6l8 -2l5 -8l5 1l8 -5l6 -13l3 -2l10 2l6 -13l13 -6l2 -7l3 -3v-6l7 -8v-2 l14 -26l6 -19v-15l5 -8l-1 -22l5 -7v-6v-28l-3 -37h-4v-15l-18 -47l-7 -11v-2q0 -1 -2 -3q0 -1 -1 -2t-2 -2.5t-1 -3.5h-1l-26 -28l-33 -22l-10 -4l-28 -8l-10 -6l-17 2l-9 -6l-8 3l-14 -2h-11l-31 3l-19 5l-6 -1l-9 10l-7 -2h-4q-6 0 -12 9l-11 4l-11 9l-10 7l-5 9l-12 6 l-4 4l-7 17q-2 3 -4 3h-1l-8 20l-6 9l-8 15l-2 10l1 3l-5 10l-2 19zM99 458l2 -10l-1 -4l1 -18l3 -5l-1 -4l1 -11l9 -15l5 -13l2 -5l13 -7v-13l9 2l3 -6l11 -9l16 -8l21 -7l18 -1l4 1l13 -1l27 5l25 11l17 11l10 13l5 11l5 7q2 2 2 5l2 4l5 13l4 12l4 32l-2 35l-2 16l-4 12 l-4 14q-1 5 -1.5 6.5t-2 2l-4.5 1.5l-7 15l-22 21l-16 11l-11 3h-7l-6 3l-9 1l-16 2l-17 -1l-12 -2l-25 -9l-5 -2q-1 0 -2 -0.5t-2 -0.5l-15 -12l-12 -13l-5 -9l-11 -11l-3 -14l-4 -10l-5 -25l-1 -18zM181 158l1 11l4 10l-4 4l-1 11l8 9l11 2l18 -2h10l7 3q2 0 5 -3l15 3 q2 -2 4 -2h2l4 -7q2 -2 2 -4t-4 -12l1 -3l1 -35l-1 -13q0 -9 -14 -9h-12l-13 1l-14 -1l-19 -1q-8 0 -8 6l-1 29zM184 7v4l1 11l3 14l-3 3l2 12l1 9l-1 18l9 5l5 2l12 -2l11 2l5 -4l17 2l10 -1l8 -1l2 -4v-57l-4 -15l-15 -6h-16l-15 2l-27 -2z" />
            <glyph unicode="p" horiz-adv-x="379" d="M30 648q0 5 3 8l4 3h4l3 3q2 3 6 3q2 0 3 -1l10 -2l18 3l114 1l31 -2h6l7 1l28 -1l15 -2l3 1l2 -1l33 -10l14 -8l3 -6l5 1l6 -10l7 -12q3 -4 4 -10l3 -4l4 -26l3 -2l-1 -3l-4 -32l-2 -13l-10 -11l3 -7l-3 -5l-8 -15l-10 -12l-7 -7l-3 -6l-26 -18l-38 -22l-50 -22l-12 -2 l-7 -6l-13 -1l-1 -5l-3 -1l-11 -3l-11 2l-3 -7l-5 -2l-16 -2l-10 -12l-3 -15l2 -18l3 -3l-2 -18l2 -37l-3 -16v-41l2 -8v-47l3 -29l-4 -11l3 -7l-3 -10l2 -11v-16l1 -60v-8l-9 -6l-36 1l-19 -2l-12 2l-5 8l-2 11l2 17l-4 13l4 27l-3 11l4 14l-2 31l-1 50l1 6l-2 37l2 13 l-2 14l1 46l-3 37l2 39l-2 14l1 32l1 15l-3 11l1 11l2 8l-4 7v7l2 14l-1 51l-2 4v21l3 16l-3 21l-1 22zM113 494l3 -35l3 -7h14l13 4h4q2 1 6 2l6 2l2 1q1 1 3 2.5t4 3.5l3 1h17q2 7 9 9l9 3l11 3l16 10l13 12l8 1l8 10q9 2 9 8v1v3l9 11l4 12l-2 20l-8 12l-14 7l-12 3 l-15 2l-12 2l-15 -2l-22 4l-30 -1l-10 -1l-5 2q-4 -3 -7 -3l-8 -1q-2 -1 -3 -3l-3 1l-4 -11v-25l-2 -24l1 -11l-2 -10l3 -6z" />
            <glyph unicode="q" horiz-adv-x="492" d="M30 369v44l1 5l-1 14l6 43l19 68l17 32l11 12v5l9 8l19 17h7l3 4l6 8l5 1q0 4 1 4l5 2l13 8l15 2q0 3 2 5l40 11l27 2l35 -1l3 1l7 -3h16l8 -6h12l5 -3h3l1 1q1 0 5 -2l16 -7l38 -22l11 -10l1 -4l13 -11l6 -12l9 -9l5 -12l17 -39l1 -13l4 -3l1 -11l-4 -6l7 -6l5 -24v-17 l2 -41l-2 -47l-3 -32l-5 -27l-4 -12q-2 -6 -2.5 -7t-5.5 0l2 -12l-14 -28l-16 -29l-9 -11l-4 -3l-5 -9l-18 -4l-2 -12l-12 -3l-10 -10l-12 -6l-9 -5q-6 -2 -8 -2l-18 -2q-6 -5 -11 -5h-6h-13v-7l16 -2q2 -2 5 -4l2 -2l7 -2l20 -8l13 -8l26 -8l14 -3l12 -9l17 -2l28 -6l21 -1 l29 3l11 2l4 -1l10 -6l2 -17l-2 -46l-12 -8l-9 -2v-3l-14 2l-14 -2l-13 2l-4 -4l-17 6l-8 -1q-2 0 -6 2l-9 5l-18 1l-17 4l-68 27l-62 21l-49 6h-12l-15 -1l-16 -3h-1q-3 0 -6 4l-10 -7l-2 -4l-13 3l-3 -9l-5 -2l-12 -1l-3 2l-2 16l2 13l-2 5v29l2 8l6 8l8 2l13 2l2 3l16 3 l36 1l3 5l-31 10l-33 20l-13 9l-4 10h-4q-4 0 -8 7l-23 38l-6 12v6l-9 11l4 3l-6 8l-2 9l3 7l-5 10l-3 4v16zM111 384l2 -16l-1 -10l2 -14l4 -20l-2 -5l13 -34l13 -28l21 -22q0 -1 0.5 -1t0.5 -1q2 -1 4 -3l11 -9l29 -11l20 -6l30 3l14 6l4 -4l1 3l2 -1q1 0 7 3l27 13l19 14 l10 12l8 13l9 20l5 10l6 13l2 12l4 8l3 33l1 37l-2 36l-3 29l-10 37l-11 25l-2 1l-3 5l-4 2l-9 17l-8 3l-5 10l-3 -1l-6 6l-16 9l-15 7h-7l-14 3l-17 1h-14l-3 -3q-2 2 -4 2q-5 0 -8 -1l-13 -5l-28 -13l-13 -11l-15 -17l-8 -12l-7 -11l-11 -30l-6 -23l-3 -32z" />
            <glyph unicode="r" horiz-adv-x="414" d="M30 499l1 1v8v16l2 15l-3 7l1 31l1 64l2 16l9 4l5 -2l59 1l17 2l10 -1l6 1h75l13 -2h14l13 -3l27 -1l11 -7h10l9 -4q4 -6 10 -6q1 0 3 1l4 -9l12 -7l2 -5l7 -7v-5q5 -1 5 -7h4v-13l3 -15v-30l1 -3l-4 -15l-8 -14l-14 -19l-19 -19l-6 -3q0 -6 -7 -10l-10 -5l-5 -4l-6 -11 l-3 -9l26 -65l2 -13l5 -5l7 -18v-10l7 -15l-2 -3v-1q1 -2 1 -3l5 -13l11 -33l18 -60v-6l10 -29l6 -27l5 -9l2 -14l4 -8v-10l5 -12l3 -20l7 -26v-14l1 -8q0 -4 -3 -6l-8 -3l-29 -2l-5 -1l-10 4l-11 -3l-14 2l-5 12l-6 35l-4 11v16l-6 11l-3 23l-6 15l-1 15l-7 14l-2 14l-3 8 l-4 13l-9 30l-4 24l-1 8l-4 4l-5 9l-6 29l-7 14l-12 35l-1 11l-12 32l-7 14l-5 6l-8 -4l-6 2l-3 4q-5 -2 -6 -8l-12 -5l-3 2l-5 -2l-32 -9l-8 -8l-7 -8l-1 -42l2 -81l1 -15l-3 -30l4 -10l-1 -54l2 -1l-1 -5v-53v-17l3 -16l-2 -31l-3 -8l-13 -4l-15 5l-9 -5l-17 2l-3 -2 l-15 1q-7 0 -7 16v30l1 22l-3 10l1 37v12l3 27l-6 9l-1 3v1q1 1 3 2l1 10l1 -4l-3 23l1 36l3 11l-3 23l-2 152l4 16h-4l-1 33l1 16zM107 549l6 -4l1 -14l-2 -66q0 -5 6 -9l7 1l10 4h6l17 4l13 6l10 -3l17 12l19 5l10 7l14 8l14 10l11 12l11 15l3 15l-2 12l-8 10l-9 6l-6 3 l-15 4l-50 3l-15 -1l-12 2q-2 -2 -4 -3h-10l-6 2l-1 1q-1 0 -1 -1l-3 -2l-11 -1l-12 -4l-2 -5l1 -14z" />
            <glyph unicode="s" horiz-adv-x="409" d="M21 49l21 45l6 8l11 6l23 -12l2 -2l11 -7l6 -1l3 -3l12 -2l2 -1l9 -2l12 -3l17 -1l27 1l11 4l25 6l18 8l23 17l25 27l13 24l5 15v7l3 9l-1 3l2 13v10l-2 8l-1 11l3 6l-6 12l-5 11v5l-9 14l-6 10l-32 37l-33 31l-12 9l-24 18l-5 8l-17 6l-25 19l-6 10l-12 3l-7 11l-11 4 l-6 11q0 4 -8 4l-7 10l-4 11l-11 8l-8 20l-5 16v17l-2 4l2 20l6 20l5 15l15 18l11 6l8 8l8 2l2 4l33 13l21 3h13l22 -1l12 1l4 -1h2l1 1h1l18 -2l12 -4l12 -2l7 -9l1 -17v-7l-1 -8v-15l-3 -15l-8 -5l-21 1l-13 1l-1 5l-19 -2l-5 6l-3 -1l-10 -2h-16l-19 -9l-12 -14l-2 -13 l6 -17l14 -16l23 -19l13 -9l21 -18l9 -5l1 -5h4l2 -4h3l25 -17l34 -32l13 -8l28 -26l16 -18l23 -33l5 -15l9 -13v-13l8 -15l-3 -8l8 -14l-6 -12l5 -2v-20l-6 -47l-3 -17l-14 -30l-6 -11l-1 -5l-11 -7l-1 -4l-5 -12l-23 -23l-25 -18l-33 -18l-33 -12l-34 -6h-18l-11 1l-14 -5 l-14 3l-13 2l-14 -1h-7l-11 8l-12 -5l-8 7l-14 4l-14 5l-12 9l-10 7z" />
            <glyph unicode="t" horiz-adv-x="388" d="M10 651q2 6 7 6l1 3l14 2l34 1l8 1l12 -3l6 -1l16 2l18 -2l7 4l7 -2l55 -1l13 -3l19 2l12 1l14 -3l99 3l8 1l12 -3l6 -10l-2 -2v-42l-8 -12l-1 -7l-13 3l-16 -2l-12 1q-2 6 -6 6q-2 0 -4 -2l-3 -2h-8q-1 -1 -1 -2l-48 1l-11 -5l-5 -16l-1 -48l1 -5l-2 -7l1 -12l1 -72 l-2 -12l3 -9l-3 -19l1 -12l-1 -75l1 -27l1 -14l-2 -15l1 -20v-11l-4 -16l4 -12v-47l2 -13l3 -19v-18l-4 -5v-1v-5q0 -1 1 -2h2v-42v-13l-1 -9l-4 -2l-12 -5l-16 -3h-9l-7 4l-6 -1l-15 -2l-9 3q-2 4 -4 4h-2l2 81v3l-1 15l2 31l-4 48l4 23l-2 43v22l1 17l-1 9l2 32l-4 12 l2 37l-1 42l-1 83v18l3 12q-2 1 -4 6l2 18l-5 4v11q-1 6 -5 14l-12 1h-37l-15 1l-18 -3l-24 3l-2 -3l-14 1l-9 5l-6 9v42z" />
            <glyph unicode="u" horiz-adv-x="451" d="M30 488l3 8l-2 6l1 8l3 7q1 2 1 7v2l-4 6l-1 43l-1 10l3 6v3q0 3 -3 6l4 23l-2 1v20l2 14l21 4h12l32 -1q4 0 9 -3.5t5 -6.5v-12l-1 -52q2 -6 2 -7v-3l-2 -14l2 -13l-2 -15l1 -32l-3 -18l1 -22l-1 -15l3 -14l-3 -13l1 -16l-1 -11l-1 -17l1 -21l-1 -21l1 -16l-1 -16l1 -15 l3 -18v-47l2 -17v-15l6 -27l8 -31l6 -12l5 -6l10 -15l13 -7l2 -4l5 -1l6 -4l16 -6l17 -2q5 0 8 -3h4h12l14 4l17 2l17 8l13 9l8 5q1 2 3 4l1 1q0 2 1 2l3 8l8 8l-1 11l8 10l5 18l3 18l1 12l2 15l-1 15v4q0 5 4 10l-2 6v13l3 9l-2 84v3v5l1 6l-1 52l-2 5v13l3 6l-1 6l-3 12 v51v44l-3 16l2 16l-1 15l-2 11l2 21l-4 16l2 4l7 9h7l21 2l33 -1h7q6 -3 8 -5l1 -12v-18l2 -53l-3 -23l2 -10l-2 -17l3 -28l-1 -5v-11l-1 -1l2 -2l-1 -6l2 -66l-1 -27l-1 -15l2 -16l-3 -7l5 -13l-1 -10l-3 -54l1 -6l1 -5l2 -3q2 -2 2 -3t-0.5 -1t-0.5 -1l-5 -8l3 -11l-1 -4 l-2 -1l-1 -32l-5 -41l-3 -14l-6 -14l3 -3l-2 -2l-14 -32l-12 -17l-27 -31l-15 -7l-5 -5q-6 0 -7 4l-11 -10l-18 -8l-16 -3l-1 -2l-17 -3l-23 -3l-29 2l-12 1l-11 4l-14 -1q-4 4 -7 4t-5 -2l-16 6l-6 7l-4 -4l-12 8l-9 7l-9 5l-4 8l-11 4l-5 7l-3 13l-3 -1q-6 0 -9 8l-14 32 l-10 32l-3 17v16l-4 16l2 11l-1 12l-4 8v37l-1 18l2 17l-1 12v26v44v37l2 12l-3 10l2 23l-3 3z" />
            <glyph unicode="v" horiz-adv-x="478" d="M0 647l6 11l19 3l43 -1h13l9 -14l16 -63l6 -11v-4q0 -1 1 -2l1 -10l22 -78l14 -45l3 -16l6 -15l3 -13l13 -42q-1 -1 -1 -2l2 -4l4 -10v-6l1 -11l6 -15l9 -32l4 -16l6 -14l2 -26l15 -42l2 -7q1 0 1 -1t1 -2l-2 -2l5 -9l1 -5q0 -1 3 -3l2 -13l7 -10l1 5l4 -1q6 4 7 10l2 13 l4 16l6 18l14 58l17 54l13 59l2 1q0 1 1 3l13 43l14 66l7 14l1 14l8 21l3 5l1 17l2 11l3 10l4 12l1 12l5 7l3 21l10 48q1 3 5 3q3 0 5 -1l3 4l11 1h1q4 0 9 -4l9 4l15 -1l18 1l10 -3l3 -2l-1 -6l-1 -14l-11 -44l-8 -13l2 -7l-4 -12l-4 -4l1 -4l1 -13l-14 -44l-19 -72l-3 -16 l-12 -32l-3 -15l-5 -13l-9 -31l-3 -16l-4 -9v-6l-3 -12l-5 -4l-3 -9l3 -10l-8 -14v-4.5v-7.5v-4l-1 -3l-3 -4l-5 -25l-2 -2l-7 -14l-2 -17l-6 -14l-3 -16l-1 -4l-11 -8l6 -13l-8 -18l-6 -25l-3 -9l-3 -10h-1l-9 -30l-7 -7l-13 -3l-61 1l-12 -1l-9 7l-7 10l-16 48l-4 9l-5 19 l-28 81l-6 15l-8 30l-25 87l-35 124l-5 10l-3 17l-5 12l-21 80l-5 14l-3 15l-7 11l-4 31l-7 12z" />
            <glyph unicode="w" horiz-adv-x="681" d="M0 643l2 11l12 5l46 -1l21 -5v-1l7 -17l10 -49l7 -9l5 -27l5 -5l-2 -4l1 -10l5 -15l3 -16l-2 -2l9 -25l12 -49l4 -9l1 -10l3 -10l5 -14v-10l5 -15l12 -32l4 -18v-7l3 -3l1 -12l7 -15l4 -14l12 -37l5 -17l6 -15l8 -30l6 -12l-2 -2l6 -13q0 -1 -1 -2h4l17 49l9 41l4 11 l5 17l5 4l3 10l-2 10l1 4l10 11l-4 11l7 14q3 6 3 9q0 2 -3 13l-13 40l-12 47l-5 11l-11 46l-8 18l-2 15l-7 15l-2 15l-6 14l-2 15l-6 26l-1 15l-7 13l-4 19v12l2 5l13 2l2 3l5 -2h55l9 -4l4 -13l9 -46l-2 -10l3 -6l7 -11l-3 -11l2 -7l4 1l6 -33l9 -38l2 -11q2 -9 5 -10h-2 l1 -5l5 2l2 11l3 14h2l2 5l3 1l-2 5l-1 9q5 1 6 10l2 12l4 11l2 15l8 27l3 21l5 15l-1 9l4 7q0 1 -1 2h6l-2 16l8 8l16 3l21 1l34 -3l6 -10l-3 -15q0 -1 -1 -3t-1 -3t-1 -2q0 -2 -1 -2l-3 -14l-5 -13l-6 -31l-4 -10l-4 -13q-1 -1 -1 -2q-2 -2 -2 -8l-2 -9l-5 -14l-2 -15 l-16 -51l-5 -19l-4 -15l-19 -62v-15h-3l2 -15v-6l3 -3v-1q0 -2 0.5 -4t0.5 -5l1 -11l3 -3l-1 -1l3 -8l10 -31l3 -18l5 -4l2 -15l5 -14l5 -13l2 -2l8 -39l5 -9l3 -15q0 -2 5 -2h2l5 13l1 5h1l3 18l2 1l4 5q1 1 2 1l7 31l9 32l3 15l15 46l2 16l5 17l11 28l2 14l5 14l3 10 l-1 11l5 11l3 14l5 15l3 2v18l7 10l4 20l9 38l2 2l1 1l9 33l2 20l9 29l4 34l6 18l4 4l11 2h17h31l4 1h1q9 0 17 -7l-1 -4l-1 -15l-11 -39l-2 -10l-8 -12l3 -7l-3 -2l-6 -12l4 -3l-1 -3l-1 -13l-13 -30v-11l-24 -77l-2 -12l-6 -19l-18 -62l-2 -15l-6 -15l-7 -28q-2 -2 -4 -5 q-4 -4 -4 -9v-2l2 -8l-10 -16l2 -7l-7 -16l-1 -7l-7 -26l-19 -62l-4 -15l-21 -60l-7 -18l-8 -13l-18 -3v1l-5 2l-15 -2h-13l-25 -1l-17 5l-14 45l-17 51l-4 7q-3 5 -3 10q0 8 -1 8l-2 4l-6 18v13l-5 5v5l-2 12l-6 12l-4 -1l-3 -19l-5 -10l-5 -10l-1 -15v-4l-7 -11v-11 l-5 -14l-3 -17l-5 -10l-3 -12l-15 -46l-5 -11l-16 -3h-41l-11 1h-15q-8 0 -8 9l-1 5l-37 117l-2 15l-16 40l-2 15l-8 16l-7 30l-7 14q1 2 1 4q-1 3 -3 8l-3 8l-9 31l-1 6l-12 37l-8 34l-10 31l-9 34l-19 65l1 22l-8 11l2 11v1q0 4 -3 4l-2 2l-3 8z" />
            <glyph unicode="x" horiz-adv-x="494" d="M9 3v13l40 84l8 16l6 14l9 18l20 44l9 14l7 19l8 10l14 34l8 7l6 14q4 10 9 14q8 5 9 10l1 15l11 13l5 15l12 22l2 12l5 3l-1 4l-21 35l-8 15l-8 11l-22 33l-9 17l-12 17l-7 13l-10 17l-9 7l1 8l-7 8l-7 16l-11 14l-8 13l-17 23l7 12l31 1l62 -2l4 -3l4 -16l8 -11l4 -13 l12 -11l4 -14l8 -7l22 -44l3 -2l19 -35l12 -17l10 -3l7 15l9 14l17 30l4 10l7 9l7 15l9 8l6 20l12 14l6 12l9 10l2 8l9 10l15 2l19 -2l16 2l34 -2q4 0 5 -3q4 -4 2 -6l-5 -8l-5 -5l-4 -14l-10 -11l-8 -10v-8l-13 -18l-9 -15l-6 -8l-7 -14l-25 -38l-9 -17l-21 -32l-8 -17 l-9 -12l-9 -17l-5 -12l20 -34l8 -12l5 -14l6 -3l7 -19l11 -14l8 -21l8 -12l44 -80l5 -15l11 -19l4 -11v-1l5 -8l8 -11l2 -11l33 -61l9 -19l2 -6l5 -8q0 -4 -2 -7q-1 -3 -5 -3l-17 -2h-60l-9 3l-4 5l-3 11l-6 7v11l-8 12l-8 15l-5 17l-13 24l-4 11l-5 5q1 2 1 4t-3 6l-5 8 l-13 29l-18 35l-8 18l-12 20l-7 17l-5 4l-5 9l-2 7l-9 11l-1 2l-2 3l-1 1l-9 6l-8 -3l-1 -6q-4 -2 -7 -8l-3 -10l-14 -26l-4 -8h-4l-7 -18l-10 -17l-3 -11l-2 -4l-1 -3l-5 -7l-5 -10l-2 -6l-2 -5l-7 -17l-14 -23l-9 -19l-5 -13l-9 -19l-5 -18l-8 -16l-5 -19l-7 -11l-5 -4 l-19 -1l-21 3l-14 -4l-13 4l-14 -1z" />
            <glyph unicode="y" horiz-adv-x="441" d="M10 650l8 9h19h18l8 3l10 -4l13 2l12 -3l12 -30l2 -9l5 -2l1 -7l17 -40l17 -40l44 -90l6 -19l7 -12h3l7 -17l9 -2l8 5l6 17l3 1l4 13l37 86l6 17l3 1l8 21l7 13l5 3l-1 16l5 9l3 2v3q1 2 1 4l1 11l14 30q0 1 0.5 1t0.5 1q1 6 3 6l13 11l14 1l15 -2l12 1l15 1l4 1l4 -2 l11 -5l1 -9v-2q0 -3 -2 -7l-5 -7l-19 -48l-6 -7l-7 -19v-10q-8 -5 -8 -16l-16 -30l-4 -17l-11 -15l-26 -60l-13 -24l-39 -88l-9 -30l2 -13l-5 -6l4 -10v-2q0 -3 -3 -4l3 -41l-1 -12v-20l2 -14l-3 -10l3 -25v-1l2 -3h-2l-3 -17l5 -21l-3 -19l2 -20l2 -9l-7 -16l-5 -3l-18 -2 h-12l-36 2l-4 3l-3 12l-1 36l1 23l-2 15v14l2 20l-1 7l2 15v5q0 2 -1 2l-1 3v29v66l-3 32l-25 55l-7 12l-8 18l-6 5l-4 14l-21 38l-2 10l-11 20v2l-8 13l-7 19l-7 13l-2 2l-1 1q0 2 2 4l-3 6l-17 34l-7 16q-1 2 -5 14q0 2 -2 4l-9 11l-11 31l-4 7l-2 2q-2 4 -2 7z" />
            <glyph unicode="z" horiz-adv-x="438" d="M10 13l6 14l11 19l-2 3l13 24l11 10l-2 9l6 14l8 8l21 43v4l19 28l8 22l8 13q3 7 5 7l4 3l5 16l20 42l14 29l3 13l15 25l27 57l8 14l6 13l6 17l6 11h1q3 0 4 6l4 7l10 23l16 23v12l11 17l5 15q1 1 -2 4l-3 3l-1 1l-8 -3h-15l-10 3q-2 0 -3 1t-2 1q-2 0 -6 -4l-18 5l-4 -5 l-16 1h-22l-3 2l-25 -3l-3 1h-17l-15 1l-14 -3l-16 2l-20 -3l-25 2l-4 7l-1 19l-2 12l2 30v6l14 5l59 -1l3 -1l4 1h21l2 -1l29 1l78 1h13l7 -2l2 1h2v-4l11 2l6 2h32l2 -2l6 1l25 -1l17 2l13 -2l27 2q4 0 9 -7q2 -4 2 -5v-1q-1 -1 -1 -2l-6 -13l-10 -22l-3 -2l-9 -20l-4 -4 l-29 -55l-23 -51l-18 -28l1 -11l-12 -5l1 -7l-6 -17l-10 -17l-23 -49l-7 -10l-10 -25l-12 -22l-3 -7l-2 -2l-11 -25q-6 -14 -11 -18v-5l-6 -10q-1 -2 -2.5 -4.5t-2.5 -4.5l-17 -35l-4 -14l-24 -48l-8 -19l-6 -12q4 -4 7 -4l8 1h15l17 -2l11 2q1 1 2 1t7 -2q5 -3 8 -3 q1 0 6 3q1 1 4 1l38 -1l15 1l20 -5l17 4h36l27 1l26 -1h14q1 0 4 -1.5l5 -2.5l1 -14l1 -32l-2 -5l1 -13v-1q0 -10 -12 -10h-2l-11 1l-12 -1l-12 3l-103 -1l-102 -1l-16 1l-28 -1l-4 -1l-17 3l-41 -2l-10 3l-34 -1l-11 2z" />
            <glyph unicode="|" horiz-adv-x="135" d="M30 -235v1000h75v-1000h-75z" />
            <glyph unicode="~" horiz-adv-x="485" d="M43 280q48 81 115 81q45 0 92 -29q44 -30 76 -30q40 0 70 61l47 -55q-47 -81 -113 -81q-50 0 -94 30q-43 29 -76 29q-38 0 -69 -61z" />
            <glyph unicode="&#xa1;" horiz-adv-x="176" d="M44 583l2 21q-1 1 -1 3q1 2 2 3l-1 9l-1 10l1 26l9 4h62l9 -7l-2 -10q-1 -1 -1 -4q0 -4 4 -8h-2v-11q0 -7 -4 -12l4 -3v-24q-4 -1 -4 -4l-8 -2v1l-12 -2h-14l-9 2l-21 -1zM45 16l2 27l2 5l-2 8v53l1 5l-1 7v36l1 14v23l-2 41l5 6l-3 10l-1 14l4 6l-3 8l-2 37l2 47v34 l3 16l-3 19l-1 32l3 18l-3 11l1 3l-3 1l7 11l11 4l18 -3l18 2h16l5 -1l5 -11l-1 -33v-33l1 -80l3 -21l-3 -11v-14l2 -16v-16l-1 -54l2 -26l-1 -23l1 -22l-3 -15l3 -18l-2 -12l4 -12l1 -20l1 -11l-3 -2l-1 -11l2 -20l-1 -18l1 -1l-3 -6h-2h-1q-3 -4 -5 -4q-1 0 -2 1l-7 2 q-4 -5 -8 -5h-1l-15 3l-19 -2l-17 4z" />
            <glyph unicode="&#xa2;" horiz-adv-x="411" d="M30 297l2 9l3 1l-5 16l2 41l2 4l1 11l5 10v17l9 25l9 15l5 14l3 3l4 8l10 13l11 10l6 8l17 15l42 29h5l7 7l14 5l6 1l3 3q3 3 7 3h12l7 4l2 10v12l-2 3l2 4l-4 17l5 5v5h-3l-3 11l1 11q5 4 7 4l13 1l19 2l17 -1l12 -2l5 -1l5 -8l-1 -9l1 -13l-1 -3v-35l8 -7l18 1l6 -3 l13 -1l5 -6l15 2l11 -6l3 -11l-2 -15l2 -39v-6h-2h-1l-3 -7l-16 2l-11 9l-10 1q-1 0 -5 4l-13 -2l-5 4l-10 -5l-1 -46l1 -15l-2 -16l2 -16l-1 -10v-21l1 -15l1 -37v-72l-1 -12l2 -33l-1 -20v-33l3 -3l12 -3l5 4l15 -4q9 3 13 3q3 0 8 -1l18 -1l8 -10v-15l3 -4l-3 -16l4 -13 l-5 -13l-19 -3l-16 1l-17 -1l-17 -1l-6 -2l-4 -13v-15l-2 -4l4 -3l-1 -24l-6 -8l-4 -3l-9 -1l-14 2l-21 1l-15 -2q-3 4 -7 4l-4 10l2 13l-1 21l1 5v2l-1 11l2 11l-3 8l-17 3l-34 16l-13 5l-25 20l-8 5l-11 11l-12 11l-29 35l-9 16l-5 7v3l-13 31l-4 15l-5 20v6zM108 306 l3 -7v-13l5 -10l3 -15l7 -14l4 -14l16 -23l22 -22l32 -19l13 -4l10 1v7l-3 4v2l1 13v15l-1 11l-2 11l3 21l-2 10l3 18l-3 19l2 23l-2 15l1 10v18l1 19l-1 58l-2 29l-2 7l3 3l-2 10h-6l-1 -3l-16 -4l-5 -6q-5 0 -8 -5l-11 -2l-7 -8l-11 -8l-31 -49l-4 -19l-4 -3l-2 -14l1 -15 l-4 -5v-8v-34z" />
            <glyph unicode="&#xa3;" horiz-adv-x="428" d="M40 468v17v19v17l12 6l19 -1h17l7 11l1 14l3 18l6 14l8 16l11 18l9 9l6 2l4 4l13 9l13 6l5 2l6 4l23 5l11 1l8 4l12 -1l12 3l16 -3l16 3l47 -3l17 -3l3 -5l2 -14l-1 -4l2 -2q1 -1 1 -2h-3l2 -11l-3 -15l2 -7l-12 -11l-22 5l-10 -2l-4 5l-11 -2l-2 -3q-3 3 -6 3t-5 -1 l-1 5l-11 -5h-11l-21 -5l-16 -2l-15 -7q0 -6 -7 -7l-3 -9l-7 -6l-6 -16v-11l8 -2l32 -1l3 2l13 -1l15 3l16 -3l17 5q4 -2 5 -2h9h77l14 -6v-14l-3 -7l3 -11l-1 -19l-2 -10l-14 -4l-19 2l-15 -3l-11 2l-44 -2l-10 2l-5 3l-10 -4l-57 -1l-7 -5l6 -13l8 -18l17 -25l6 -14l9 -13 l9 -17l10 -16l5 -15l7 -10l3 -14l9 -14l9 -27l2 -11l5 -19l4 -13v-10l1 -2v-7l1 -19l-4 -25l-8 -27l-11 -27l-9 -9l4 -2l-12 -8l10 -8h24l39 1l12 3l6 -4l17 3l13 -4l1 -1v-2t2 -3v-15l1 -11l-1 -5l2 -4l-1 -9l-1 -3l-1 -9q0 -2 -3 -4l-11 -6l-9 2l-48 -1h-10l-13 2l-10 -2 l-5 1h-26h-16l-2 2l-93 -2h-5q-1 0 -1 -1h-17l-7 2l-11 -3l-27 1l-4 3l-3 15l4 3l-5 12l5 11l-1 20l3 9l12 1h26l13 -2l17 1l8 -1l13 5h5l14 5l13 8l4 2l6 10l7 6q0 2 3 5l2 4l4 12l3 5l2 12l4 19l-1 31l-4 12l-1 10l-7 30l-8 15l-1 3l-3 5l-6 14l-13 24l-6 11l-3 3l-5 14 l-25 41l-15 33v3l-4 2l-5 12l-5 15l-7 13l-8 3l-20 -2l-5 4l-22 -2h-8z" />
            <glyph unicode="&#xa4;" horiz-adv-x="606" d="M62 174l68 65q-37 56 -37 115q0 65 37 115l-68 66l47 48l68 -67q53 37 116 37q68 0 116 -37l68 67l48 -48l-69 -66q38 -53 38 -115q0 -59 -38 -115l69 -65l-48 -48l-67 67q-52 -38 -117 -38q-64 0 -116 38l-68 -67zM160 355q0 -54 39 -93.5t94 -39.5t94 39t39 94 q0 56 -40 93.5t-92 37.5q-56 0 -95 -38.5t-39 -92.5z" />
            <glyph unicode="&#xa5;" horiz-adv-x="499" d="M40 641v7l11 10l13 -1l11 5l12 -3l15 1l5 -2l8 -1q4 0 8 -4l5 -6l-1 -6l5 -10l2 -10l5 -4v-7l5 -11l3 -13l3 -5l6 -12v-5l11 -20l2 -10l7 -14l8 -13l12 -30l16 -31l4 -11q5 -10 6 -10l3 -2l4 -14l15 -26l6 -8l2 -2l11 4l37 85l2 6l4 8l15 38l2 8q1 1 2 1l2 11l8 16l8 13 v3h2v14l1 5l4 1v1q-1 1 -1 2l1 1l2 1q1 1 1 6l1 12q2 3 5 9q1 0 2 3l5 12l1 5l2 2l4 8l14 12l26 -1l2 -2l5 2h22l3 2q2 -1 5 -2l8 -3l1 -7l-4 -14l-7 -13l-3 -4l-2 -10l-3 -10h-3q0 -6 -3 -8l-9 -26l-4 -9l-6 -9l-4 -17l-3 -1l-7 -8l-6 -20l-4 -2l-2 -17l-4 -3l-7 -13 l-6 -13l-3 -10l-1 -1l-2 -7l-4 -10l-5 -1l2 -5l-4 -4l-7 -13v-4l2 1q3 0 6 -5l7 -1l15 3q3 0 6 -1h13l14 2l14 -8l3 -10v-12q-2 -2 -2 -4q0 -1 2 -5v-14l-2 -1l2 -2l-2 -2l1 -11l-7 -6h-7l-10 -1l-2 4l-7 -2h-16l-8 -1l-13 3l-15 -3l-7 1l-13 -3l-3 2l-1 -1q-1 0 -1 1l-5 -9 l-3 -8h-1l-3 -14l-5 -10l6 -8l29 1l13 -1l15 3l15 -3h6l8 2q1 0 2 -1l19 -3l9 -8l-1 -13l2 -14l-1 -3l-3 -14l-5 -10q-2 -2 -5 -2h-2l-4 2l-10 -1l-2 -1l-16 -1l-11 2l-7 -3l-8 2l-15 -1h-15l-2 -1h-17l-5 -13l2 -17l1 -54l-1 -15l1 -22l3 -42l-1 -1l1 -8l2 -12l-3 -12 q-2 -6 -8 -6h-10l-3 -2l-10 -1l-22 1l-11 2l-2 -1h-4l-2 -1l-7 6q-4 9 -5 11l3 56l-3 30l3 15l-1 21l1 15l-1 16v15l-5 15l-13 5l-17 -1l-10 -1l-15 2l-12 -5l-20 3h-20l-16 -1q-6 0 -6 10v14q-2 3 -2 8v14v15q2 2 4 6l4 4q0 1 2 1t7 -3l10 2l8 -1l16 1l2 -1h7h14l2 -2l2 2 l6 -1q1 1 3 2h6h18l3 -2l18 2l1 12l-6 13v5l-7 14l-5 6l-25 -1l-16 1l-6 -1l-27 1l-11 -1h-23l-11 4l-1 15l-3 3l2 18v14l3 17l16 -1l12 4l5 -3l4 1l30 -1v3l5 9l-7 13q-3 4 -3 6q1 1 1 2l-8 12l-8 20l-4 5l-11 27l-7 10l1 8l-9 9v5l-15 26l-2 4l-2 3l-6 21l-4 9l-5 4 l-11 29l-8 14l-1 5z" />
            <glyph unicode="&#xa6;" horiz-adv-x="135" d="M30 198h75v-433h-75v433zM30 337v428h75v-428h-75z" />
            <glyph unicode="&#xa8;" horiz-adv-x="421" d="M99 770l2 11l-2 14q0 2 3 8q0 3 3 4l8 7l4 1l12 -1l16 -1l4 2h15l6 -1q1 0 5 2l9 -4l2 -2l4 -9v-22l-1 -10l3 -1v-1l-1 -1q0 -1 -1 -2v-2l-1 -5l2 -7l-1 -15l-7 -11l-31 -1l-10 1l-19 -1l-12 2l-3 1l-7 9l-1 12l3 9zM233 799l5 10l10 4l12 -2l1 2h3h12l14 1l2 2l13 -4 q2 1 4 1l6 -2l-2 -2l6 -3l3 -22l-4 -30l3 -12l-2 -14l-11 -6l-13 1l-22 -2l-4 4l-13 -3l-15 1l-5 6v13l1 3l-1 3l-1 10l1 18z" />
            <glyph unicode="&#xaa;" d="M10 12l7 48l17 71l4 10l1 21l7 19l6 11l-2 15l9 34l8 38l17 56l3 20l10 38l2 17l9 17v11l23 89l-1 6q0 1 3 4l5 16l7 19v15l8 14v14l8 15l3 18l3 6l16 7l18 -1l17 3l18 -4h2l17 3l18 -7l7 -17l8 -26l22 -75l6 -13l3 -17l7 -14l8 -38l8 -21l5 -29l5 -12l3 -19l5 -13l2 -14 l6 -16l2 -15l9 -31v-7l4 -12l2 -15l4 -9v-15l8 -13l18 -83l5 -13l5 -19l3 -18q0 -3 2 -7q1 -3 2 -6.5t1.5 -5t0.5 -2.5l1 -16l8 -33l-6 -10l-13 -1l-5 -1l-15 2h-38l-9 4l-1 3l-2 11l-3 2l1 31l-6 17l1 14l-7 22l-27 117l1 12v7q0 6 -6 8l-5 21l-1 13l-6 16l-4 26l-3 10 l-3 5l-20 2l-29 3l-19 -3l-20 2l-15 -1l-10 1l-7 -3l-6 -9l-18 -71l-8 -42v-7l-10 -37l1 -2l-2 -20l-4 -9l-1 -22l-8 -17l-1 -20l-9 -34l-3 -45q0 -1 -4 -3q-8 -2 -9 -4l-15 2l-2 1q-2 0 -3 -2h-1q-1 -1 -2 -1l-3 3l-13 -2l-10 2l-15 -3l-8 5zM178 401q0 -6 4 -6l5 1h11 l7 -4l16 5l38 -1l9 4l-1 16l-2 4l-17 5l-12 -3l-16 1l-17 -3l1 4l-16 -2l-8 -8zM192 477l2 -5h18l11 -2h12l19 4l-3 15l-21 72l-5 23h-4l-7 -27l-5 -23l-5 -15l-8 -31z" />
            <glyph unicode="&#xab;" horiz-adv-x="391" d="M35 323l3 17l27 54l4 18l6 6v3l10 27l4 2q2 0 2 4q0 1 2 3l3 11l6 7l5 14l8 14q3 7 14 7h3l13 -4q4 2 15 2l21 1l12 -3l5 -2l-1 -10l-12 -21l-15 -31l-11 -13l-3 -14l-14 -31l-18 -48v-16l5 -15l9 -17l5 -16l14 -28l22 -40l1 -4l15 -29l4 -10q0 -2 -1 -3q-1 -4 -5 -4 l-15 2l-25 -1l-10 1l-19 -3l-13 9l-7 17l-8 15l-6 14l-9 14l-3 12l-8 12l-3 10l-4 5l-4 10l-12 18l-6 15l-4 8zM199 330l11 21v11l7 13l5 14l15 30l5 15l10 16l6 15l5 16l14 25h18l15 -1l15 1l3 -1l1 2l20 1l6 -6l-10 -28l-11 -18v-4l-7 -15l-4 -12l-7 -17l-7 -15l-10 -26 l-12 -29v-13l7 -14l1 -3l7 -13l6 -17l7 -12l1 -14l5 -7l28 -60l8 -13v-10l-1 -5h-3v-1h-38h-23l-9 -2q-8 0 -12 11l-3 9l-3 4l-23 52v3l-8 8l-6 15l1 3q0 4 -5 7l-22 46z" />
            <glyph unicode="&#xac;" horiz-adv-x="485" d="M63 333v75h360v-266h-75v191h-285z" />
            <glyph unicode="&#xad;" horiz-adv-x="287" d="M35 309v15l3 3l-2 4v11l2 3q-1 1 -1 2l-2 13l15 8l10 -3l39 4l7 -2l21 3l19 -2l13 3l15 -2l10 2l12 -2l7 2l2 -2l24 2l18 -1q2 0 2 -1l3 -2l-2 -11l3 -15v-13l-4 -9l3 -16l-3 -4l-11 -2l-35 1l-10 1l-6 -2l-13 1l-25 -2l-44 2l-12 -2l-17 -1v3l-3 -1l-33 -1z" />
            <glyph unicode="&#xb1;" horiz-adv-x="485" d="M63 0v75h360v-75h-360zM63 333v75h142v197h75v-197h143v-75h-143v-196h-75v196h-142z" />
            <glyph unicode="&#xb2;" horiz-adv-x="382" d="M-10 7l4 6l9 16l2 11l10 11l3 11l12 14l8 11l4 12l10 12l5 14l34 59l31 45l22 37l1 6l10 9l6 24l6 4l9 12l6 14l17 28l6 17l11 12l1 11l15 26l10 32l5 27l4 10l1 3q0 2 -3 5v12l-5 24l-3 6l-16 19l-23 12l-10 5l-7 -1l-10 3l-14 -1l-11 1l-27 -3l-45 -11l-9 -3 q-2 0 -5 -1h-3l-11 -5h-6l-6 10l3 16l-2 7l2 16v28l3 3l11 6l14 1l4 1l10 2l17 6l21 -2l20 7l18 -3l24 2l34 -3l21 -8l10 2l13 -6l22 -13l8 -9l4 -2q4 -1 6 -7l4 -8l8 -8l4 -10l2 -3l12 -37l-1 -27l2 -11l-1 -10l-2 -27l-10 -38v-6l-6 -11v-13l-9 -10l1 -5l-6 -14l-9 -18 l-7 -15l-42 -69l-4 -10l-9 -15l-4 -2l-5 -15l-11 -16l-9 -16l-4 -9l-13 -20l-1 -7l-5 -4l-10 -12l-32 -59q-1 -2 -1 -6q0 -5 2 -8l43 -2l15 3l21 -1l12 -4l15 2l19 -1l29 3h21l17 -2l5 -9l-3 -14l1 -34l3 -5l-3 -10l-8 -7h-35l-28 2l-3 2h-2h-2l-4 -2l-14 -1l-19 3l-24 -3 l-10 3l-13 2l-15 -3l-10 2l-5 -3h-17h-16l-36 -1l-19 2h-39l-6 -2q-1 -1 -3 -1q-6 0 -12 10z" />
            <glyph unicode="&#xb3;" horiz-adv-x="355" d="M20 27l4 5l-4 14l5 13q-3 3 -3 6q0 6 8 6l33 1l17 -2h9l15 5l9 -2l25 3l33 11l21 15l20 19l1 6l5 4l8 9l12 30l7 31l1 19l-2 5l-1 31l-7 25l-6 11l-5 14l-9 12l-11 15l-4 3l-3 3l-14 12l-14 9l-12 4l-31 11l-2 3l-13 -1l-15 5l-14 2l-31 2q-17 1 -17 6v12v16v11l-1 7v6 q0 5 2 7l7 6l21 2l16 2l8 3h7l17 5l27 14l15 21l4 11l3 15l-2 16l-3 14l-6 4v6l-10 6q-1 4 -3 4l-3 -3l-8 7l-5 2l-3 1l-6 -1l-4 1q-1 0 -2 -1l-9 3l-13 -4l-13 -2l-19 -6l-15 -6l-9 3v18l-2 13v4l-4 12l3 7l-1 11v2q0 10 13 12l25 5l35 5l19 -2h17l30 -7l3 -3l18 -8l14 -7 l11 -10l18 -23l8 -14l8 -30v-17l-2 -8v-4v-17l-6 -10l-1 -11l-17 -25l-6 -9l-10 -9l-15 -9l-2 -7l10 -6h8l13 -8l10 -2l12 -13l8 -2q3 -3 3 -4l2 -4l6 -5l8 -7l5 -9l11 -5l2 -8l8 -10v-3l10 -15l14 -30l6 -19h-2l1 -6l4 -10l2 -46l-2 -17v-24l-5 -15l-2 -15l-5 -15l-7 -15 l-17 -30l-3 -6l-6 -7q-1 0 -2 -4l-2 -2q-1 -2 -2 -3l-3 2l-3 -7l-3 -1l-12 -16l-13 -6l-5 -6l-11 -3l-5 -7l-12 -2l-5 -4l-18 -4l-17 -7l-22 -1l-22 -5l-64 -3l-20 1l-13 5l-3 12z" />
            <glyph unicode="&#xb4;" horiz-adv-x="366" d="M99 728q0 2 2 8l6 11l1 1q2 0 5 4l8 11l2 4q2 5 3 5l7 4q2 10 4 10l7 2l5 15l8 5l6 13q7 16 20 16h3l25 -2q2 3 3 2l10 -1l17 2l13 -3l8 3l5 -6v-11l-2 1l-6 -6l-1 1l-8 -14l-8 -6l-12 -18l-11 -12l-8 -11l-20 -19v-2q-9 -11 -14 -13h-15l-16 2l-34 -2h-3q-4 -1 -7 1.5 t-3 4.5z" />
            <glyph unicode="&#xb5;" horiz-adv-x="577" d="M77 -191v691h99v-268q0 -164 108 -164q52 0 83.5 42t33.5 101v289h99v-500h-98q0 14 -0.5 42t-0.5 43h-2q-35 -83 -119 -89q-69 -4 -104 48q1 0 1.5 -1t-0.5 -2q0 -36 -0.5 -116t-0.5 -116h-99z" />
            <glyph unicode="&#xb7;" horiz-adv-x="170" d="M40 356l3 14l3 5l29 3l12 -5l5 3h33l5 -9l-1 -11l-2 -18l2 -13l2 -19l-1 -4v-7q0 -9 -7 -9h-2q-1 1 -2 1l-21 -1l-11 1l-4 1h-10l-17 -1h-11l-3 16l2 1v18l-2 11l2 12z" />
            <glyph unicode="&#xb9;" horiz-adv-x="149" d="M30 618l2 4v20l2 15l14 4l9 -1h19l27 1h4l8 -7l1 -32l3 -20l-3 -11l1 -15l-2 -18l1 -16l2 -10l-4 -32v-16l2 -26l-4 -17l4 -19l-2 -16l1 -22l1 -4l-2 -15l1 -13l-2 -15v-36l2 -28l-1 -17l-3 -14l8 -16l-1 -5l-3 -10l1 -18v-13l3 -12l-2 -20l3 -11l-6 -15l3 -4l2 -14 l-3 -16l2 -33v-47l-3 -3l-17 -7l-38 1l-16 2l-7 6l-2 21l3 29l-3 13l2 12l-3 9q3 7 3.5 10.5t-0.5 14t-1 22.5l-3 15l1 7v4l-1 55l1 31v50v20v58l-2 8l2 15l2 20q-2 4 -2 9l-1 12l2 7l-4 16l2 18l3 10l-4 11l1 11l2 14l-2 18v45z" />
            <glyph unicode="&#xba;" horiz-adv-x="433" d="M20 428l2 14l-1 2v7v15l2 8l-1 10l6 32l11 37q0 2 6 5l2 2v9l14 16v4l10 12l13 16l15 11l26 16l14 5l14 6l25 5l35 2h17l13 -2h3l1 1q1 0 2 -1l10 1l17 -4q3 0 3 -2l1 -1q0 -3 8 -3l9 1l11 -6l8 -2l5 -8l5 1l8 -5l6 -13l3 -2l10 2l6 -13l13 -6l2 -7l3 -3v-6l7 -8v-2 l14 -26l6 -19v-15l5 -8l-1 -22l5 -7v-6v-28l-3 -37h-4v-15l-18 -47l-7 -11v-2q0 -1 -2 -3q0 -1 -1 -2t-2 -2.5t-1 -3.5h-1l-26 -28l-33 -22l-10 -4l-28 -8l-10 -6l-17 2l-9 -6l-8 3l-14 -2h-11l-31 3l-19 5l-6 -1l-9 10l-7 -2h-4q-6 0 -12 9l-11 4l-11 9l-10 7l-5 9l-12 6 l-4 4l-7 17q-2 3 -4 3h-1l-8 20l-6 9l-8 15l-2 10l1 3l-5 10l-2 19zM99 458l2 -10l-1 -4l1 -18l3 -5l-1 -4l1 -11l9 -15l5 -13l2 -5l13 -7v-13l9 2l3 -6l11 -9l16 -8l21 -7l18 -1l4 1l13 -1l27 5l25 11l17 11l10 13l5 11l5 7q2 2 2 5l2 4l5 13l4 12l4 32l-2 35l-2 16l-4 12 l-4 14q-1 5 -1.5 6.5t-2 2l-4.5 1.5l-7 15l-22 21l-16 11l-11 3h-7l-6 3l-9 1l-16 2l-17 -1l-12 -2l-25 -9l-5 -2q-1 0 -2 -0.5t-2 -0.5l-15 -12l-12 -13l-5 -9l-11 -11l-3 -14l-4 -10l-5 -25l-1 -18zM181 158l1 11l4 10l-4 4l-1 11l8 9l11 2l18 -2h10l7 3q2 0 5 -3l15 3 q2 -2 4 -2h2l4 -7q2 -2 2 -4t-4 -12l1 -3l1 -35l-1 -13q0 -9 -14 -9h-12l-13 1l-14 -1l-19 -1q-8 0 -8 6l-1 29zM184 7v4l1 11l3 14l-3 3l2 12l1 9l-1 18l9 5l5 2l12 -2l11 2l5 -4l17 2l10 -1l8 -1l2 -4v-57l-4 -15l-15 -6h-16l-15 2l-27 -2z" />
            <glyph unicode="&#xbb;" horiz-adv-x="391" d="M33 498q0 2 2 4q2 4 3 4t1 -1l7 1l11 2l8 -4l10 4l20 -1h13l9 -11l12 -20l5 -15l6 -13l7 -12l5 -13q0 -2 5 -9q4 -4 4 -6l5 -17l7 -9l4 -15l6 -15l5 -15l-1 -18l-14 -29l-4 -14l-7 -12l-3 -16l-8 -8l-3 -16l-4 -4l-4 -14q-2 -8 -9 -13l-1 -11l-6 -7l-4 -14l-14 -5l-27 1 l-12 -3l-25 2l-4 8v3q3 3 3 5v1l6 13l6 11v4l11 19l4 14l5 13l6 10l2 5l4 14l3 8l6 4v17l7 11l3 14v12l-4 3l-5 23l-6 11v4l-16 29l-12 28l-4 16l-9 10h-2l1 3v6l-10 18l-2 3zM194 506l10 3h40h17l11 -3l10 -15l5 -14l8 -11l6 -15l6 -8l13 -30l10 -14l5 -15l5 -7l16 -35 l-1 -17l-4 -11l-5 -16l-7 -15l-3 -11l-5 -12l-4 -7l-9 -10q-2 -2 -2 -5q0 -1 2 -7l-12 -16l-1 -11l-10 -14l-1 -13l-8 -11l-2 -10l-11 -1l-42 1h-25l-1 12l3 1v4l4 11l6 10l16 33l8 18l5 11l4 16l5 8q0 4 3 5l2 14l8 13l2 29l-11 25l-5 12l-4 10l-9 13l-4 14l-2 5l-6 6l-3 7 l-1 2l-6 17l-8 12l-5 11l-7 10q0 5 -1 5l-3 5z" />
            <glyph unicode="&#xbc;" horiz-adv-x="1055" d="M714 374l1 10l5 10l-4 3l1 10l-3 15l2 8l-1 22l1 38l1 30l-3 48l3 14l-3 13l3 13l-3 11v14l2 16v4l7 9h8l22 -4l12 3l11 -2l8 1l11 -6l1 -30l-1 -76l-1 -11l2 -12l-2 -14l1 -32l-2 -1l1 -18l2 -8h26l5 -2l12 5l7 -5h14q4 0 6 5h2l2 4v58l1 15l-3 13l2 17l-1 16l-2 81l2 1 q4 3 6 3l11 -3v3l6 -2l5 1l12 -1l12 1l10 -3l15 -1l3 -11l-2 -11l1 -17l-3 -11l4 -13l-3 -30l2 -11q-2 -3 -2 -6t1 -6l2 -8l-1 -28l-3 -4l3 -21l-3 -5l1 -4l-1 -14q0 -1 6 -7q4 -2 7 -2q2 0 3 1l3 2l19 -2l4 1l8 -1l8 -1l16 1h1q14 0 14 -7l1 -31l-2 -6l-2 -11l3 -7l-2 -14 l-11 -3l-11 2h-11l-12 -1h-7h-1q-4 0 -9 1h-2l-16 -2l-1 -14l-1 -16l2 -15l1 -10l-3 -6v-31l2 -17l-3 -13l3 -9q1 -2 1 -5t-1 -4l-2 -6l1 -6v-17v-42l2 -24l-1 -17l1 -40v-31l1 -39v-5l-12 -5l-29 1q-1 1 -4 1q-4 0 -8 -4l-3 2l-10 5l-13 -6l-4 6l1 11l-4 4l2 15l3 15v4 q0 6 -4 6h-1l4 14l-2 18l2 41v40v93l-2 22l1 3l-1 27l2 5l-1 16l2 18l-4 11l-8 4l-16 1h-8l-3 -1l-11 -1h-30l-11 -2l-11 4l-19 -2l-5 2l-28 -1zM628 657l14 -3l33 1l4 -3l3 -1q2 0 2 -6v-10l-10 -11l-17 -28l-6 -7h-1l-5 -11q-2 -2 -4 -3q-6 -5 -9 -10l-3 -6l-15 -21l-2 -2 l-9 -13l-19 -29l-3 -3l-8 -7l-10 -15l-16 -25l-2 -1l-6 -10l-6 -7l-10 -10l-5 -14l-12 -14l-13 -18l-2 -6l-17 -19l-10 -17l-10 -8l-5 -12l-6 -8l-30 -44l-5 -4l-15 -27l-7 -8l-10 -13l-7 -18l-11 -4l-1 -14l-3 -3l-11 -2l-1 -5l-3 -10l-7 -12l-11 -11l-7 -9l-10 -18l-6 -8 l-6 -9l-10 -12l-6 -10l-6 -11q-1 -1 -3 -2v-2q0 -2 -5 -8l-6 -7l-14 -22q-5 -10 -13 -10l-1 1h-2l-2 3q-2 2 -5 1l-10 -4l-23 2l-16 -1l-14 -1l-7 9l2 2l-1 7l7 8l8 10l8 12l6 3l6 13l2 1l47 70l8 7l7 10l7 12l24 35l6 8l10 8l6 14l12 15l8 14l27 36l7 9l7 8l10 19l10 11 l4 6l4 10l18 23l2 5l9 10l1 7l8 7l20 26l17 30l7 3l9 18l2 3l11 10l3 9l7 9l9 15l11 15l9 15l6 9l4 3l13 22l9 10l5 13l13 12l13 19l14 9l12 -1zM30 618l2 4v20l2 15l14 4l9 -1h19l27 1h4l8 -7l1 -32l3 -20l-3 -11l1 -15l-2 -18l1 -16l2 -10l-4 -32v-16l2 -26l-4 -17l4 -19 l-2 -16l1 -22l1 -4l-2 -15l1 -13l-2 -15v-36l2 -28l-1 -17l-3 -14l8 -16l-1 -5l-3 -10l1 -18v-13l3 -12l-2 -20l3 -11l-6 -15l3 -4l2 -14l-3 -16l2 -33v-47l-3 -3l-17 -7l-38 1l-16 2l-7 6l-2 21l3 29l-3 13l2 12l-3 9q3 7 3.5 10.5t-0.5 14t-1 22.5l-3 15l1 7v4l-1 55l1 31 v50v20v58l-2 8l2 15l2 20q-2 4 -2 9l-1 12l2 7l-4 16l2 18l3 10l-4 11l1 11l2 14l-2 18v45z" />
            <glyph unicode="&#xbd;" horiz-adv-x="1073" d="M681 7l4 6l9 16l2 11l10 11l3 11l12 14l8 11l4 12l10 12l5 14l34 59l31 45l22 37l1 6l10 9l6 24l6 4l9 12l6 14l17 28l6 17l11 12l1 11l15 26l10 32l5 27l4 10l1 3q0 2 -3 5v12l-5 24l-3 6l-16 19l-23 12l-10 5l-7 -1l-10 3l-14 -1l-11 1l-27 -3l-45 -11l-9 -3 q-2 0 -5 -1h-3l-11 -5h-6l-6 10l3 16l-2 7l2 16v28l3 3l11 6l14 1l4 1l10 2l17 6l21 -2l20 7l18 -3l24 2l34 -3l21 -8l10 2l13 -6l22 -13l8 -9l4 -2q4 -1 6 -7l4 -8l8 -8l4 -10l2 -3l12 -37l-1 -27l2 -11l-1 -10l-2 -27l-10 -38v-6l-6 -11v-13l-9 -10l1 -5l-6 -14l-9 -18 l-7 -15l-42 -69l-4 -10l-9 -15l-4 -2l-5 -15l-11 -16l-9 -16l-4 -9l-13 -20l-1 -7l-5 -4l-10 -12l-32 -59q-1 -2 -1 -6q0 -5 2 -8l43 -2l15 3l21 -1l12 -4l15 2l19 -1l29 3h21l17 -2l5 -9l-3 -14l1 -34l3 -5l-3 -10l-8 -7h-35l-28 2l-3 2h-2h-2l-4 -2l-14 -1l-19 3l-24 -3 l-10 3l-13 2l-15 -3l-10 2l-5 -3h-17h-16l-36 -1l-19 2h-39l-6 -2q-1 -1 -3 -1q-6 0 -12 10zM628 657l14 -3l33 1l4 -3l3 -1q2 0 2 -6v-10l-10 -11l-17 -28l-6 -7h-1l-5 -11q-2 -2 -4 -3q-6 -5 -9 -10l-3 -6l-15 -21l-2 -2l-9 -13l-19 -29l-3 -3l-8 -7l-10 -15l-16 -25 l-2 -1l-6 -10l-6 -7l-10 -10l-5 -14l-12 -14l-13 -18l-2 -6l-17 -19l-10 -17l-10 -8l-5 -12l-6 -8l-30 -44l-5 -4l-15 -27l-7 -8l-10 -13l-7 -18l-11 -4l-1 -14l-3 -3l-11 -2l-1 -5l-3 -10l-7 -12l-11 -11l-7 -9l-10 -18l-6 -8l-6 -9l-10 -12l-6 -10l-6 -11q-1 -1 -3 -2v-2 q0 -2 -5 -8l-6 -7l-14 -22q-5 -10 -13 -10l-1 1h-2l-2 3q-2 2 -5 1l-10 -4l-23 2l-16 -1l-14 -1l-7 9l2 2l-1 7l7 8l8 10l8 12l6 3l6 13l2 1l47 70l8 7l7 10l7 12l24 35l6 8l10 8l6 14l12 15l8 14l27 36l7 9l7 8l10 19l10 11l4 6l4 10l18 23l2 5l9 10l1 7l8 7l20 26l17 30 l7 3l9 18l2 3l11 10l3 9l7 9l9 15l11 15l9 15l6 9l4 3l13 22l9 10l5 13l13 12l13 19l14 9l12 -1zM30 618l2 4v20l2 15l14 4l9 -1h19l27 1h4l8 -7l1 -32l3 -20l-3 -11l1 -15l-2 -18l1 -16l2 -10l-4 -32v-16l2 -26l-4 -17l4 -19l-2 -16l1 -22l1 -4l-2 -15l1 -13l-2 -15v-36 l2 -28l-1 -17l-3 -14l8 -16l-1 -5l-3 -10l1 -18v-13l3 -12l-2 -20l3 -11l-6 -15l3 -4l2 -14l-3 -16l2 -33v-47l-3 -3l-17 -7l-38 1l-16 2l-7 6l-2 21l3 29l-3 13l2 12l-3 9q3 7 3.5 10.5t-0.5 14t-1 22.5l-3 15l1 7v4l-1 55l1 31v50v20v58l-2 8l2 15l2 20q-2 4 -2 9l-1 12 l2 7l-4 16l2 18l3 10l-4 11l1 11l2 14l-2 18v45z" />
            <glyph unicode="&#xbe;" horiz-adv-x="1261" d="M920 374l1 10l5 10l-4 3l1 10l-3 15l2 8l-1 22l1 38l1 30l-3 48l3 14l-3 13l3 13l-3 11v14l2 16v4l7 9h8l22 -4l12 3l11 -2l8 1l11 -6l1 -30l-1 -76l-1 -11l2 -12l-2 -14l1 -32l-2 -1l1 -18l2 -8h26l5 -2l12 5l7 -5h14q4 0 6 5h2l2 4v58l1 15l-3 13l2 17l-1 16l-2 81l2 1 q4 3 6 3l11 -3v3l6 -2l5 1l12 -1l12 1l10 -3l15 -1l3 -11l-2 -11l1 -17l-3 -11l4 -13l-3 -30l2 -11q-2 -3 -2 -6t1 -6l2 -8l-1 -28l-3 -4l3 -21l-3 -5l1 -4l-1 -14q0 -1 6 -7q4 -2 7 -2q2 0 3 1l3 2l19 -2l4 1l8 -1l8 -1l16 1h1q14 0 14 -7l1 -31l-2 -6l-2 -11l3 -7l-2 -14 l-11 -3l-11 2h-11l-12 -1h-7h-1q-4 0 -9 1h-2l-16 -2l-1 -14l-1 -16l2 -15l1 -10l-3 -6v-31l2 -17l-3 -13l3 -9q1 -2 1 -5t-1 -4l-2 -6l1 -6v-17v-42l2 -24l-1 -17l1 -40v-31l1 -39v-5l-12 -5l-29 1q-1 1 -4 1q-4 0 -8 -4l-3 2l-10 5l-13 -6l-4 6l1 11l-4 4l2 15l3 15v4 q0 6 -4 6h-1l4 14l-2 18l2 41v40v93l-2 22l1 3l-1 27l2 5l-1 16l2 18l-4 11l-8 4l-16 1h-8l-3 -1l-11 -1h-30l-11 -2l-11 4l-19 -2l-5 2l-28 -1zM834 657l14 -3l33 1l4 -3l3 -1q2 0 2 -6v-10l-10 -11l-17 -28l-6 -7h-1l-5 -11q-2 -2 -4 -3q-6 -5 -9 -10l-3 -6l-15 -21l-2 -2 l-9 -13l-19 -29l-3 -3l-8 -7l-10 -15l-16 -25l-2 -1l-6 -10l-6 -7l-10 -10l-5 -14l-12 -14l-13 -18l-2 -6l-17 -19l-10 -17l-10 -8l-5 -12l-6 -8l-30 -44l-5 -4l-15 -27l-7 -8l-10 -13l-7 -18l-11 -4l-1 -14l-3 -3l-11 -2l-1 -5l-3 -10l-7 -12l-11 -11l-7 -9l-10 -18l-6 -8 l-6 -9l-10 -12l-6 -10l-6 -11q-1 -1 -3 -2v-2q0 -2 -5 -8l-6 -7l-14 -22q-5 -10 -13 -10l-1 1h-2l-2 3q-2 2 -5 1l-10 -4l-23 2l-16 -1l-14 -1l-7 9l2 2l-1 7l7 8l8 10l8 12l6 3l6 13l2 1l47 70l8 7l7 10l7 12l24 35l6 8l10 8l6 14l12 15l8 14l27 36l7 9l7 8l10 19l10 11 l4 6l4 10l18 23l2 5l9 10l1 7l8 7l20 26l17 30l7 3l9 18l2 3l11 10l3 9l7 9l9 15l11 15l9 15l6 9l4 3l13 22l9 10l5 13l13 12l13 19l14 9l12 -1zM20 27l4 5l-4 14l5 13q-3 3 -3 6q0 6 8 6l33 1l17 -2h9l15 5l9 -2l25 3l33 11l21 15l20 19l1 6l5 4l8 9l12 30l7 31l1 19l-2 5 l-1 31l-7 25l-6 11l-5 14l-9 12l-11 15l-4 3l-3 3l-14 12l-14 9l-12 4l-31 11l-2 3l-13 -1l-15 5l-14 2l-31 2q-17 1 -17 6v12v16v11l-1 7v6q0 5 2 7l7 6l21 2l16 2l8 3h7l17 5l27 14l15 21l4 11l3 15l-2 16l-3 14l-6 4v6l-10 6q-1 4 -3 4l-3 -3l-8 7l-5 2l-3 1l-6 -1l-4 1 q-1 0 -2 -1l-9 3l-13 -4l-13 -2l-19 -6l-15 -6l-9 3v18l-2 13v4l-4 12l3 7l-1 11v2q0 10 13 12l25 5l35 5l19 -2h17l30 -7l3 -3l18 -8l14 -7l11 -10l18 -23l8 -14l8 -30v-17l-2 -8v-4v-17l-6 -10l-1 -11l-17 -25l-6 -9l-10 -9l-15 -9l-2 -7l10 -6h8l13 -8l10 -2l12 -13l8 -2 q3 -3 3 -4l2 -4l6 -5l8 -7l5 -9l11 -5l2 -8l8 -10v-3l10 -15l14 -30l6 -19h-2l1 -6l4 -10l2 -46l-2 -17v-24l-5 -15l-2 -15l-5 -15l-7 -15l-17 -30l-3 -6l-6 -7q-1 0 -2 -4l-2 -2q-1 -2 -2 -3l-3 2l-3 -7l-3 -1l-12 -16l-13 -6l-5 -6l-11 -3l-5 -7l-12 -2l-5 -4l-18 -4 l-17 -7l-22 -1l-22 -5l-64 -3l-20 1l-13 5l-3 12z" />
            <glyph unicode="&#xbf;" horiz-adv-x="364" d="M20 130l3 2l-3 12l1 28q5 5 5 8q0 2 -3 5l2 5l2 10l4 5l3 12l4 3l8 18l2 3l15 21l25 25l13 9l31 31l50 39l10 10l14 13l2 8l5 4l1 7l4 4q1 1 1 9l1 9l-4 13q0 2 -9 9h-1q-2 1 -3 1l-19 5l-21 -2l-17 -5l-14 -3l-10 6v6l-6 17v18l-3 16l4 10l14 1l8 7l13 -3l4 5l9 -1l12 4 l38 -3l19 -5l24 -12l7 -10l12 -7l7 -12l5 -8l2 -2l1 -7l3 -5l1 -10l5 -5l-2 -9l2 -17l-4 -22l-5 -15l-9 -20l-5 -3l-8 -16l-7 -10l-5 -2l-3 -7l-13 -9l-7 -9l-10 -4l-6 -11q-7 0 -8 -1l-5 -7q-2 -5 -13 -5l-7 -12q-8 -4 -14 -9l-9 -7q-6 -6 -7 -9l-2 -2l-10 -5l-11 -13 l-11 -9l-17 -24v-4l-3 -9l-5 -17l1 -13l5 -10v-11l9 -7q0 -10 4 -14l8 -3l7 -12q8 0 10 -2l3 -4l21 -8q6 2 7 2q2 0 6 -2l4 -2l10 -2l16 -2l35 3l18 5l16 2l15 5l4 -2q3 6 6 6q1 -1 2 -1l1 2l4 3l19 3l5 -9l-2 -4l3 -7l6 -15l2 -14q-3 -3 -3 -5q0 -1 4 -5l1 -14l-29 -11 l-15 -5h-5l-12 -5h-10l-3 -2l-22 -2h-8l-3 -2l-12 1l-4 3l-5 -4l-26 -1l-15 2l-26 3l-15 6h-4l-6 2l-14 7l-4 6l-13 2l-16 9l-9 11l-10 5l-10 14l-11 14l-5 15l-5 9l-1 7l-1 3v11zM139 624l2 25l2 4l13 10l4 2l13 -3l24 2l9 -4l11 4l7 -3l3 -13q0 -2 1 -4v-3q0 -2 -1 -3 l-2 -9q-1 -1 -1 -3q0 -3 1 -4l3 -10l1 -24l-6 -6l-9 -5l-18 2l-12 -2l-30 1q-13 2 -13 7v10v16z" />
            <glyph unicode="&#xc0;" d="M10 12l7 48l17 71l4 10l1 21l7 19l6 11l-2 15l9 34l8 38l17 56l3 20l10 38l2 17l9 17v11l23 89l-1 6q0 1 3 4l5 16l7 19v15l8 14v14l8 15l3 18l3 6l16 7l18 -1l17 3l18 -4h2l17 3l18 -7l7 -17l8 -26l22 -75l6 -13l3 -17l7 -14l8 -38l8 -21l5 -29l5 -12l3 -19l5 -13l2 -14 l6 -16l2 -15l9 -31v-7l4 -12l2 -15l4 -9v-15l8 -13l18 -83l5 -13l5 -19l3 -18q0 -3 2 -7q1 -3 2 -6.5t1.5 -5t0.5 -2.5l1 -16l8 -33l-6 -10l-13 -1l-5 -1l-15 2h-38l-9 4l-1 3l-2 11l-3 2l1 31l-6 17l1 14l-7 22l-27 117l1 12v7q0 6 -6 8l-5 21l-1 13l-6 16l-4 26l-3 10 l-3 5l-20 2l-29 3l-19 -3l-20 2l-15 -1l-10 1l-7 -3l-6 -9l-18 -71l-8 -42v-7l-10 -37l1 -2l-2 -20l-4 -9l-1 -22l-8 -17l-1 -20l-9 -34l-3 -45q0 -1 -4 -3q-8 -2 -9 -4l-15 2l-2 1q-2 0 -3 -2h-1q-1 -1 -2 -1l-3 3l-13 -2l-10 2l-15 -3l-8 5zM72 826l4 9q1 1 4 1h2l8 -2 q1 0 4 3l12 2l10 -1l42 2l11 -4l17 -23l4 -2q1 -1 3 -4l3 -8l21 -20l5 -9q3 -5 8 -7q2 -2 3 -2l5 -8v-1q0 -3 4 -5l9 -5l1 -12l-3 -3l-15 -3h-64l-16 13l-9 11l-6 10l-12 11l-12 9l-9 11l-6 5l-8 13l-8 7zM178 401q0 -6 4 -6l5 1h11l7 -4l16 5l38 -1l9 4l-1 16l-2 4l-17 5 l-12 -3l-16 1l-17 -3l1 4l-16 -2l-8 -8zM192 477l2 -5h18l11 -2h12l19 4l-3 15l-21 72l-5 23h-4l-7 -27l-5 -23l-5 -15l-8 -31z" />
            <glyph unicode="&#xc1;" d="M10 12l7 48l17 71l4 10l1 21l7 19l6 11l-2 15l9 34l8 38l17 56l3 20l10 38l2 17l9 17v11l23 89l-1 6q0 1 3 4l5 16l7 19v15l8 14v14l8 15l3 18l3 6l16 7l18 -1l17 3l18 -4h2l17 3l18 -7l7 -17l8 -26l22 -75l6 -13l3 -17l7 -14l8 -38l8 -21l5 -29l5 -12l3 -19l5 -13l2 -14 l6 -16l2 -15l9 -31v-7l4 -12l2 -15l4 -9v-15l8 -13l18 -83l5 -13l5 -19l3 -18q0 -3 2 -7q1 -3 2 -6.5t1.5 -5t0.5 -2.5l1 -16l8 -33l-6 -10l-13 -1l-5 -1l-15 2h-38l-9 4l-1 3l-2 11l-3 2l1 31l-6 17l1 14l-7 22l-27 117l1 12v7q0 6 -6 8l-5 21l-1 13l-6 16l-4 26l-3 10 l-3 5l-20 2l-29 3l-19 -3l-20 2l-15 -1l-10 1l-7 -3l-6 -9l-18 -71l-8 -42v-7l-10 -37l1 -2l-2 -20l-4 -9l-1 -22l-8 -17l-1 -20l-9 -34l-3 -45q0 -1 -4 -3q-8 -2 -9 -4l-15 2l-2 1q-2 0 -3 -2h-1q-1 -1 -2 -1l-3 3l-13 -2l-10 2l-15 -3l-8 5zM178 401q0 -6 4 -6l5 1h11 l7 -4l16 5l38 -1l9 4l-1 16l-2 4l-17 5l-12 -3l-16 1l-17 -3l1 4l-16 -2l-8 -8zM185 728q0 2 2 8l6 11l1 1q2 0 5 4l8 11l2 4q2 5 3 5l7 4q2 10 4 10l7 2l5 15l8 5l6 13q7 16 20 16h3l25 -2q2 3 3 2l10 -1l17 2l13 -3l8 3l5 -6v-11l-2 1l-6 -6l-1 1l-8 -14l-8 -6l-12 -18 l-11 -12l-8 -11l-20 -19v-2q-9 -11 -14 -13h-15l-16 2l-34 -2h-3q-4 -1 -7 1.5t-3 4.5zM192 477l2 -5h18l11 -2h12l19 4l-3 15l-21 72l-5 23h-4l-7 -27l-5 -23l-5 -15l-8 -31z" />
            <glyph unicode="&#xc2;" d="M10 12l7 48l17 71l4 10l1 21l7 19l6 11l-2 15l9 34l8 38l17 56l3 20l10 38l2 17l9 17v11l23 89l-1 6q0 1 3 4l5 16l7 19v15l8 14v14l8 15l3 18l3 6l16 7l18 -1l17 3l18 -4h2l17 3l18 -7l7 -17l8 -26l22 -75l6 -13l3 -17l7 -14l8 -38l8 -21l5 -29l5 -12l3 -19l5 -13l2 -14 l6 -16l2 -15l9 -31v-7l4 -12l2 -15l4 -9v-15l8 -13l18 -83l5 -13l5 -19l3 -18q0 -3 2 -7q1 -3 2 -6.5t1.5 -5t0.5 -2.5l1 -16l8 -33l-6 -10l-13 -1l-5 -1l-15 2h-38l-9 4l-1 3l-2 11l-3 2l1 31l-6 17l1 14l-7 22l-27 117l1 12v7q0 6 -6 8l-5 21l-1 13l-6 16l-4 26l-3 10 l-3 5l-20 2l-29 3l-19 -3l-20 2l-15 -1l-10 1l-7 -3l-6 -9l-18 -71l-8 -42v-7l-10 -37l1 -2l-2 -20l-4 -9l-1 -22l-8 -17l-1 -20l-9 -34l-3 -45q0 -1 -4 -3q-8 -2 -9 -4l-15 2l-2 1q-2 0 -3 -2h-1q-1 -1 -2 -1l-3 3l-13 -2l-10 2l-15 -3l-8 5zM72 727l5 13l13 12l2 2 q0 1 2 3l8 6l11 15l3 4l5 3l1 3l10 8l5 9l14 9l5 10l8 7l6 8q3 3 7 3h1h2l10 3l13 -2l19 1l32 -1q8 0 10 -2l7 -9q0 -1 3 -1q2 -7 10 -8l12 -17l9 -5l6 -10l8 -5l5 -10l11 -3l8 -12l6 -3l7 -12l12 -10l-2 -10h-15l-9 -2h-15l-13 -1l-13 2l-16 -2l-14 12l-7 11l-10 6l-3 8 l-22 21l-12 3q0 -1 -3 -1h-2l1 -1q0 -1 -4 -5t-5 -6l-6 -9l-15 -14l-1 -4l-3 -2h-6l-1 -6l-2 -2l-10 -8l-5 -3l-13 1l-12 -2l-13 3l-18 -3l-6 1h-14q-3 4 -7 4zM178 401q0 -6 4 -6l5 1h11l7 -4l16 5l38 -1l9 4l-1 16l-2 4l-17 5l-12 -3l-16 1l-17 -3l1 4l-16 -2l-8 -8z M192 477l2 -5h18l11 -2h12l19 4l-3 15l-21 72l-5 23h-4l-7 -27l-5 -23l-5 -15l-8 -31z" />
            <glyph unicode="&#xc3;" d="M10 12l7 48l17 71l4 10l1 21l7 19l6 11l-2 15l9 34l8 38l17 56l3 20l10 38l2 17l9 17v11l23 89l-1 6q0 1 3 4l5 16l7 19v15l8 14v14l8 15l3 18l3 6l16 7l18 -1l17 3l18 -4h2l17 3l18 -7l7 -17l8 -26l22 -75l6 -13l3 -17l7 -14l8 -38l8 -21l5 -29l5 -12l3 -19l5 -13l2 -14 l6 -16l2 -15l9 -31v-7l4 -12l2 -15l4 -9v-15l8 -13l18 -83l5 -13l5 -19l3 -18q0 -3 2 -7q1 -3 2 -6.5t1.5 -5t0.5 -2.5l1 -16l8 -33l-6 -10l-13 -1l-5 -1l-15 2h-38l-9 4l-1 3l-2 11l-3 2l1 31l-6 17l1 14l-7 22l-27 117l1 12v7q0 6 -6 8l-5 21l-1 13l-6 16l-4 26l-3 10 l-3 5l-20 2l-29 3l-19 -3l-20 2l-15 -1l-10 1l-7 -3l-6 -9l-18 -71l-8 -42v-7l-10 -37l1 -2l-2 -20l-4 -9l-1 -22l-8 -17l-1 -20l-9 -34l-3 -45q0 -1 -4 -3q-8 -2 -9 -4l-15 2l-2 1q-2 0 -3 -2h-1q-1 -1 -2 -1l-3 3l-13 -2l-10 2l-15 -3l-8 5zM72 751l2 13l14 32l9 7l1 5 l16 16l29 14l9 3l10 -1l11 2l12 -2l48 -15l15 -6l11 -3l8 -3l12 -2l6 -2l1 2q1 0 1 -1l4 -2l19 5l12 10l7 11l3 8l7 5l17 -6l24 -15l7 -14l-1 -5l-11 -15v-7l-6 -6l-6 -11l-4 -1l1 -4l-11 -7l-12 -13l-31 -8l-13 -1l-32 5q-4 5 -9 7l-9 2l-10 7l-15 2l-9 5l-21 8l-12 -1 l-7 2l-4 -6l-11 -4l-9 -9l-4 -7l-1 -2l-3 -3l-3 -10l-13 -7l-31 12l-12 5zM178 401q0 -6 4 -6l5 1h11l7 -4l16 5l38 -1l9 4l-1 16l-2 4l-17 5l-12 -3l-16 1l-17 -3l1 4l-16 -2l-8 -8zM192 477l2 -5h18l11 -2h12l19 4l-3 15l-21 72l-5 23h-4l-7 -27l-5 -23l-5 -15l-8 -31z " />
            <glyph unicode="&#xc4;" d="M10 12l7 48l17 71l4 10l1 21l7 19l6 11l-2 15l9 34l8 38l17 56l3 20l10 38l2 17l9 17v11l23 89l-1 6q0 1 3 4l5 16l7 19v15l8 14v14l8 15l3 18l3 6l16 7l18 -1l17 3l18 -4h2l17 3l18 -7l7 -17l8 -26l22 -75l6 -13l3 -17l7 -14l8 -38l8 -21l5 -29l5 -12l3 -19l5 -13l2 -14 l6 -16l2 -15l9 -31v-7l4 -12l2 -15l4 -9v-15l8 -13l18 -83l5 -13l5 -19l3 -18q0 -3 2 -7q1 -3 2 -6.5t1.5 -5t0.5 -2.5l1 -16l8 -33l-6 -10l-13 -1l-5 -1l-15 2h-38l-9 4l-1 3l-2 11l-3 2l1 31l-6 17l1 14l-7 22l-27 117l1 12v7q0 6 -6 8l-5 21l-1 13l-6 16l-4 26l-3 10 l-3 5l-20 2l-29 3l-19 -3l-20 2l-15 -1l-10 1l-7 -3l-6 -9l-18 -71l-8 -42v-7l-10 -37l1 -2l-2 -20l-4 -9l-1 -22l-8 -17l-1 -20l-9 -34l-3 -45q0 -1 -4 -3q-8 -2 -9 -4l-15 2l-2 1q-2 0 -3 -2h-1q-1 -1 -2 -1l-3 3l-13 -2l-10 2l-15 -3l-8 5zM115 770l2 11l-2 14q0 2 3 8 q0 3 3 4l8 7l4 1l12 -1l16 -1l4 2h15l6 -1q1 0 5 2l9 -4l2 -2l4 -9v-22l-1 -10l3 -1v-1l-1 -1q0 -1 -1 -2v-2l-1 -5l2 -7l-1 -15l-7 -11l-31 -1l-10 1l-19 -1l-12 2l-3 1l-7 9l-1 12l3 9zM178 401q0 -6 4 -6l5 1h11l7 -4l16 5l38 -1l9 4l-1 16l-2 4l-17 5l-12 -3l-16 1 l-17 -3l1 4l-16 -2l-8 -8zM192 477l2 -5h18l11 -2h12l19 4l-3 15l-21 72l-5 23h-4l-7 -27l-5 -23l-5 -15l-8 -31zM249 799l5 10l10 4l12 -2l1 2h3h12l14 1l2 2l13 -4q2 1 4 1q1 0 3 -1t3 -1l-2 -2l6 -3l3 -22l-4 -30l3 -12l-2 -14l-11 -6l-13 1l-22 -2l-4 4l-13 -3l-15 1 l-5 6v13l1 3l-1 3l-1 10l1 18z" />
            <glyph unicode="&#xc5;" d="M10 12l7 48l17 71l4 10l1 21l7 19l6 11l-2 15l9 34l8 38l17 56l3 20l10 38l2 17l9 17v11l23 89l-1 6q0 1 3 4l5 16l7 19v15l8 14v14l8 15l3 18l3 6l16 7l18 -1l17 3l18 -4h2l17 3l18 -7l7 -17l8 -26l22 -75l6 -13l3 -17l7 -14l8 -38l8 -21l5 -29l5 -12l3 -19l5 -13l2 -14 l6 -16l2 -15l9 -31v-7l4 -12l2 -15l4 -9v-15l8 -13l18 -83l5 -13l5 -19l3 -18q0 -3 2 -7q1 -3 2 -6.5t1.5 -5t0.5 -2.5l1 -16l8 -33l-6 -10l-13 -1l-5 -1l-15 2h-38l-9 4l-1 3l-2 11l-3 2l1 31l-6 17l1 14l-7 22l-27 117l1 12v7q0 6 -6 8l-5 21l-1 13l-6 16l-4 26l-3 10 l-3 5l-20 2l-29 3l-19 -3l-20 2l-15 -1l-10 1l-7 -3l-6 -9l-18 -71l-8 -42v-7l-10 -37l1 -2l-2 -20l-4 -9l-1 -22l-8 -17l-1 -20l-9 -34l-3 -45q0 -1 -4 -3q-8 -2 -9 -4l-15 2l-2 1q-2 0 -3 -2h-1q-1 -1 -2 -1l-3 3l-13 -2l-10 2l-15 -3l-8 5zM120 792v16v13l4 15l6 13l6 9 v2h2l1 7l24 20l12 7l7 2l4 2l12 5l28 3h14l28 -6l9 -6l10 -3l20 -20l6 -7q1 -1 1 -3l12 -25l4 -12v-12l3 -14q-2 -4 -3 -4l-1 -1v-9l-3 -15l-2 -2l-5 -14l-4 -2l-6 -14l-12 -9q-7 -6 -10 -6l-3 -4l-15 -7l-19 -6h-12l-2 -1h-10l-14 -1q-5 5 -7 5q-1 0 -5 -2l-3 4l-17 3 l-24 11l-6 8l-8 8l-6 10l-6 10l-5 14zM178 401q0 -6 4 -6l5 1h11l7 -4l16 5l38 -1l9 4l-1 16l-2 4l-17 5l-12 -3l-16 1l-17 -3l1 4l-16 -2l-8 -8zM182 799l4 -18l8 -12l2 -1l14 -8h10l7 -1h5l9 1l17 12l8 8l5 19l-2 20l-7 15h-4l-6 10l-14 6h-18l-9 -1l-14 -10l-10 -13 l-3 -10zM192 477l2 -5h18l11 -2h12l19 4l-3 15l-21 72l-5 23h-4l-7 -27l-5 -23l-5 -15l-8 -31z" />
            <glyph unicode="&#xc6;" horiz-adv-x="605" d="M-1 9v5l4 18l2 5l3 11l2 10l7 19l-1 2l4 7l5 14l-1 2l13 35l27 72l8 19l3 14l9 13l4 15l14 31l5 15l21 45l8 22l37 80l11 19l10 24l3 4l2 -1l4 12l1 2l10 21l18 35l10 23l11 20l13 17l4 7l9 8l26 4h14l5 -1l4 2l16 -1l5 2h8l13 1l16 -1l2 -1l27 2l9 -1l10 3l19 -2l17 3 l10 -4l18 3l11 -6l3 -6l-1 -15l3 -15l-3 -8l1 -16l-8 -3q0 -1 -7 -2v-1l-18 1l-34 1l-16 -1l-14 -2l-4 -10l1 -21q4 -4 4 -8l6 -2l26 3l13 -1l11 2l17 -1h13h13l6 2l14 -2l30 2l7 1l12 -9l1 -3l1 -27l-3 -11l2 -6l-3 -8q-2 -6 -4 -6h-3l-16 -1l-19 -1h-12l-40 -1l-13 -2 l-5 3l-6 -2l-11 2l-16 -3l-4 1l-12 -4l-7 -6l-1 -67l1 -25l1 -69l1 -12l-3 -15l3 -20l-1 -3v-38v-25l1 -14l-1 -5l1 -28l-2 -17l1 -10l-2 -15l2 -12l3 -15l3 -4l19 -3l52 -1l14 2l16 -1l15 2l5 1l6 -4l21 1h4l4 -7l1 -35l2 -17l-2 -7l-11 -8l-24 3l-15 -2l-15 -1h-13l-9 2 q-2 0 -4 -2l-17 1l-11 -2l-18 1l-9 -2l-6 1l-11 -1l-12 1l-8 -1l-5 1h-33q-14 0 -14 2l-4 7l-5 8l3 38l-4 10l1 14l-1 31l2 17l-3 13l2 5q4 0 4 5v8l-2 9l1 10l-1 27v50l1 14l-2 28l1 12l-1 15l2 14v5q0 3 -1 4l-9 6l-79 -1l-10 1l-28 -3l-12 -10l-2 -5l-3 -3l-9 -26l-4 -4 l-3 -13l-6 -10l-21 -54l-10 -28l-3 -14q-2 -11 -5 -11v-2l-5 -19l-7 -15l-3 -15l-2 -5l-3 -11l-2 1v-2l-3 -15l-2 -9l-5 -6v-4l-4 -11l-2 -3l1 -4l-3 -11l-4 -3l2 -8l-5 -10l-3 -13l-12 -4l-9 -2l-39 1l-3 -1l-14 2zM232 413l4 -8q2 -2 4 -2q3 0 6 2h3q3 0 7 -4h3l13 4 l16 -3l33 2l14 6l-1 16l-4 13l-39 1l-19 -3l-6 2l-16 -2q-4 -4 -6 -4q-1 1 -3 1l2 -3l-3 1l-2 -4zM273 489l11 -2l11 3q5 -3 6 -3t6 3l4 -1l14 2l5 6l1 25l1 3l-1 7v30l-3 11q-1 0 -3 1l-3 2h-3l-9 -8l-8 -13l-7 -16l-8 -9l-4 -14l-2 -2l-7 -17z" />
            <glyph unicode="&#xc7;" horiz-adv-x="363" d="M20 381l2 13l5 52l3 11l-2 5l3 10l6 14l4 16l12 34l15 28l10 17l8 7l6 11l9 3l4 8l25 20l11 4l12 9l13 6h5l30 9l14 2l17 5q4 -2 6 -2t6 3l11 -6l6 4l15 1l17 -1l6 -2h10l28 -6q8 -2 8 -10v-2l-1 -5l2 -17l-4 -15l2 -17l-1 -9h-3l-1 -6h-12l-16 5l-13 2l-6 7l-11 -5 l-11 -1l-3 3l-13 -2l-10 1l-13 -4l-16 -1q-4 -1 -8 -6l-12 -1l-27 -17l-18 -19l-20 -31l-19 -49l-7 -45l-3 -5l2 -8l-3 -16l3 -8l-3 -14l2 -9l-1 -42l3 -18l2 -6q1 -1 1 -2q1 -2 1 -3l2 -19l4 -14l8 -28l4 -16l13 -28l16 -27l11 -12l22 -22l14 -8l10 -8h5l14 -4l14 -6h13 l10 -3l11 3l11 -5l16 -2l19 1l15 -3l5 -1l5 -14l-1 -40l-2 -10l-8 -5l-1 -1l-49 1l-13 6l2 -5l-11 2v-5v-10l11 -5l8 -5l11 -12l8 -14l6 -13l1 -16l2 -4l-2 -26l-6 -9l-3 -6l-12 -18l-10 -7q-5 -4 -6 -7l-15 -7l-16 -6l-32 -5l-11 1l-6 6h-5l1 2l-2 4l-3 32l1 9l15 3l5 -2 l15 4l11 5q3 5 8 8v9l6 2l-2 14l-3 9l-16 17l-15 7l-10 3l-8 6l2 12l5 2l-1 4l4 10l5 15l-24 9l-14 7l-2 2l-4 1l-26 17l-28 26l-20 22l-6 12v6l-9 11l-10 16l-7 16l-3 11l-12 20v13l-6 16l-9 41v19l-5 11l4 11l-3 13l-2 38l2 10z" />
            <glyph unicode="&#xc8;" horiz-adv-x="303" d="M-28 826l4 9q1 1 4 1h2l8 -2q1 0 4 3l12 2l10 -1l42 2l11 -4l17 -23l4 -2q1 -1 3 -4l3 -8l21 -20l5 -9q3 -5 8 -7q2 -2 3 -2l5 -8v-1q0 -3 4 -5l9 -5l1 -12l-3 -3l-15 -3h-64l-16 13l-9 11l-6 10l-12 11l-12 9l-9 11l-6 5l-8 13l-8 7zM30 9v18v7v6l1 13l6 8l-5 7v16 l-1 11l1 70l-1 14v26l2 5v18l-3 6l1 2l-1 9l1 69l1 3l-1 11l5 4l-6 12l6 14q-6 10 -6 17l1 58l1 12v18l-2 39q0 4 1 4h1l1 11l-2 3v5v2l1 9l-2 4l1 51l-1 46l3 22l12 5l6 -2l10 2l4 -2q1 0 4 3l4 -1l37 -1l8 2v-2l16 1l28 -2l12 2l12 -1l11 3l12 -9l1 -14v-33l-3 -13l-20 -3 h-20l-6 3l-29 -1h-10q-1 0 -7 2l-2 -6t-2 -5l-1 -2v-17v-12q4 -4 6 -4l13 2l15 -1q7 0 11 -4l2 1q1 0 3 -2l15 6l5 -4l16 4l20 -1l41 1l21 -1l2 -2l2 -12l1 -23l-2 -12l2 -5l-5 -15l-15 -1l-36 1l-35 -2q-3 4 -4 4l-9 -2l-15 -1h-26l-20 1l-9 -7l1 -12v-22v-19v-23l-1 -32 l2 -74l-2 -5l-2 -9l5 -4l-4 -13l5 -5l-1 -9l-1 -10l2 -15q-3 -5 -3 -7t3 -6l-3 -8v-15l-2 -5l3 -7l-1 -14l2 -6v-4q0 -3 -2 -3l-1 -1l3 -13l-3 -27l3 -9l-1 -14l2 -12l7 -2l13 3q6 -4 8 -4q2 1 5 1l10 2l15 -3h2l4 1v1v1l18 1l25 -1l3 -2v3l24 -2l14 2l9 -4l2 -17l-2 -18 l1 -2l-1 -7l1 -14v-6l-8 -7h-26h-16l-14 -2l-4 2l-7 -1l-34 -1h-9l-4 1l-17 -1l-12 3l-9 -2l-11 -2l-2 -1l-12 5l-4 -2h-8l-13 -1l-6 2l-17 -1z" />
            <glyph unicode="&#xc9;" horiz-adv-x="303" d="M30 9v18v7v6l1 13l6 8l-5 7v16l-1 11l1 70l-1 14v26l2 5v18l-3 6l1 2l-1 9l1 69l1 3l-1 11l5 4l-6 12l6 14q-6 10 -6 17l1 58l1 12v18l-2 39q0 4 1 4h1l1 11l-2 3v5v2l1 9l-2 4l1 51l-1 46l3 22l12 5l6 -2l10 2l4 -2q1 0 4 3l4 -1l37 -1l8 2v-2l16 1l28 -2l12 2l12 -1 l11 3l12 -9l1 -14v-33l-3 -13l-20 -3h-20l-6 3l-29 -1h-10q-1 0 -7 2l-2 -6t-2 -5l-1 -2v-17v-12q4 -4 6 -4l13 2l15 -1q7 0 11 -4l2 1q1 0 3 -2l15 6l5 -4l16 4l20 -1l41 1l21 -1l2 -2l2 -12l1 -23l-2 -12l2 -5l-5 -15l-15 -1l-36 1l-35 -2q-3 4 -4 4l-9 -2l-15 -1h-26 l-20 1l-9 -7l1 -12v-22v-19v-23l-1 -32l2 -74l-2 -5l-2 -9l5 -4l-4 -13l5 -5l-1 -9l-1 -10l2 -15q-3 -5 -3 -7t3 -6l-3 -8v-15l-2 -5l3 -7l-1 -14l2 -6v-4q0 -3 -2 -3l-1 -1l3 -13l-3 -27l3 -9l-1 -14l2 -12l7 -2l13 3q6 -4 8 -4q2 1 5 1l10 2l15 -3h2l4 1v1v1l18 1l25 -1 l3 -2v3l24 -2l14 2l9 -4l2 -17l-2 -18l1 -2l-1 -7l1 -14v-6l-8 -7h-26h-16l-14 -2l-4 2l-7 -1l-34 -1h-9l-4 1l-17 -1l-12 3l-9 -2l-11 -2l-2 -1l-12 5l-4 -2h-8l-13 -1l-6 2l-17 -1zM79 728q0 2 2 8l6 11l1 1q2 0 5 4l8 11l2 4q2 5 3 5l7 4q2 10 4 10l7 2l5 15l8 5l6 13 q7 16 20 16h3l25 -2q2 3 3 2l10 -1l17 2l13 -3l8 3l5 -6v-11l-2 1l-6 -6l-1 1l-8 -14l-8 -6l-12 -18l-11 -12l-8 -11l-20 -19v-2q-9 -11 -14 -13h-15l-16 2l-34 -2h-3q-4 -1 -7 1.5t-3 4.5z" />
            <glyph unicode="&#xca;" horiz-adv-x="303" d="M-15 727l5 13l13 12l2 2q0 1 2 3l8 6l11 15l3 4l5 3l1 3l10 8l5 9l14 9l5 10l8 7l6 8q3 3 7 3h1h2l10 3l13 -2l19 1l32 -1q8 0 10 -2l7 -9q0 -1 3 -1q2 -7 10 -8l12 -17l9 -5l6 -10l8 -5l5 -10l11 -3l8 -12l6 -3l7 -12l12 -10l-2 -10h-15l-9 -2h-15l-13 -1l-13 2l-16 -2 l-14 12l-7 11l-10 6l-3 8l-22 21l-12 3q0 -1 -3 -1h-2l1 -1q0 -1 -4 -5t-5 -6l-6 -9l-15 -14l-1 -4l-3 -2h-6l-1 -6l-2 -2l-10 -8l-5 -3l-13 1l-12 -2l-13 3l-18 -3l-6 1h-14q-3 4 -7 4zM30 9v18v7v6l1 13l6 8l-5 7v16l-1 11l1 70l-1 14v26l2 5v18l-3 6l1 2l-1 9l1 69l1 3 l-1 11l5 4l-6 12l6 14q-6 10 -6 17l1 58l1 12v18l-2 39q0 4 1 4h1l1 11l-2 3v5v2l1 9l-2 4l1 51l-1 46l3 22l12 5l6 -2l10 2l4 -2q1 0 4 3l4 -1l37 -1l8 2v-2l16 1l28 -2l12 2l12 -1l11 3l12 -9l1 -14v-33l-3 -13l-20 -3h-20l-6 3l-29 -1h-10q-1 0 -7 2l-2 -6t-2 -5l-1 -2 v-17v-12q4 -4 6 -4l13 2l15 -1q7 0 11 -4l2 1q1 0 3 -2l15 6l5 -4l16 4l20 -1l41 1l21 -1l2 -2l2 -12l1 -23l-2 -12l2 -5l-5 -15l-15 -1l-36 1l-35 -2q-3 4 -4 4l-9 -2l-15 -1h-26l-20 1l-9 -7l1 -12v-22v-19v-23l-1 -32l2 -74l-2 -5l-2 -9l5 -4l-4 -13l5 -5l-1 -9l-1 -10 l2 -15q-3 -5 -3 -7t3 -6l-3 -8v-15l-2 -5l3 -7l-1 -14l2 -6v-4q0 -3 -2 -3l-1 -1l3 -13l-3 -27l3 -9l-1 -14l2 -12l7 -2l13 3q6 -4 8 -4q2 1 5 1l10 2l15 -3h2l4 1v1v1l18 1l25 -1l3 -2v3l24 -2l14 2l9 -4l2 -17l-2 -18l1 -2l-1 -7l1 -14v-6l-8 -7h-26h-16l-14 -2l-4 2 l-7 -1l-34 -1h-9l-4 1l-17 -1l-12 3l-9 -2l-11 -2l-2 -1l-12 5l-4 -2h-8l-13 -1l-6 2l-17 -1z" />
            <glyph unicode="&#xcb;" horiz-adv-x="303" d="M30 9v18v7v6l1 13l6 8l-5 7v16l-1 11l1 70l-1 14v26l2 5v18l-3 6l1 2l-1 9l1 69l1 3l-1 11l5 4l-6 12l6 14q-6 10 -6 17l1 58l1 12v18l-2 39q0 4 1 4h1l1 11l-2 3v5v2l1 9l-2 4l1 51l-1 46l3 22l12 5l6 -2l10 2l4 -2q1 0 4 3l4 -1l37 -1l8 2v-2l16 1l28 -2l12 2l12 -1 l11 3l12 -9l1 -14v-33l-3 -13l-20 -3h-20l-6 3l-29 -1h-10q-1 0 -7 2l-2 -6t-2 -5l-1 -2v-17v-12q4 -4 6 -4l13 2l15 -1q7 0 11 -4l2 1q1 0 3 -2l15 6l5 -4l16 4l20 -1l41 1l21 -1l2 -2l2 -12l1 -23l-2 -12l2 -5l-5 -15l-15 -1l-36 1l-35 -2q-3 4 -4 4l-9 -2l-15 -1h-26 l-20 1l-9 -7l1 -12v-22v-19v-23l-1 -32l2 -74l-2 -5l-2 -9l5 -4l-4 -13l5 -5l-1 -9l-1 -10l2 -15q-3 -5 -3 -7t3 -6l-3 -8v-15l-2 -5l3 -7l-1 -14l2 -6v-4q0 -3 -2 -3l-1 -1l3 -13l-3 -27l3 -9l-1 -14l2 -12l7 -2l13 3q6 -4 8 -4q2 1 5 1l10 2l15 -3h2l4 1v1v1l18 1l25 -1 l3 -2v3l24 -2l14 2l9 -4l2 -17l-2 -18l1 -2l-1 -7l1 -14v-6l-8 -7h-26h-16l-14 -2l-4 2l-7 -1l-34 -1h-9l-4 1l-17 -1l-12 3l-9 -2l-11 -2l-2 -1l-12 5l-4 -2h-8l-13 -1l-6 2l-17 -1zM33 770l2 11l-2 14q0 2 3 8q0 3 3 4l8 7l4 1l12 -1l16 -1l4 2h15l6 -1q1 0 5 2l9 -4l2 -2 l4 -9v-22l-1 -10l3 -1v-1l-1 -1q0 -1 -1 -2v-2l-1 -5l2 -7l-1 -15l-7 -11l-31 -1l-10 1l-19 -1l-12 2l-3 1l-7 9l-1 12l3 9zM167 799l5 10l10 4l12 -2l1 2h3h12l14 1l2 2l13 -4q2 1 4 1l6 -2l-2 -2l6 -3l3 -22l-4 -30l3 -12l-2 -14l-11 -6l-13 1l-22 -2l-4 4l-13 -3l-15 1 l-5 6v13l1 3l-1 3l-1 10l1 18z" />
            <glyph unicode="&#xcc;" horiz-adv-x="149" d="M-68 826l4 9q1 1 4 1h2l8 -2q1 0 4 3l12 2l10 -1l42 2l11 -4l17 -23l4 -2q1 -1 3 -4l3 -8l21 -20l5 -9q3 -5 8 -7q2 -2 3 -2l5 -8v-1q0 -3 4 -5l9 -5l1 -12l-3 -3l-15 -3h-64l-16 13l-9 11l-6 10l-12 11l-12 9l-9 11l-6 5l-8 13l-8 7zM30 605l2 12l-2 21v3l5 12l-4 -2v2 q0 6 8 8h9h19q1 0 2 -1l8 1h19l4 2q14 -1 14 -6l1 -13l-2 -16l2 -14l-4 -18l2 -17l-2 -10l1 -14l1 -50v-77v-10l-3 -8l5 -28l-1 -85v-16l-1 -30q4 -5 4 -12l-1 -54v-55l2 -22l-2 -17l2 -15l-2 -6l1 -34l3 -11v-17l-4 -7l-10 -1l-12 -1l-17 1l-31 -2h-2q-10 0 -10 7v1l2 19 v33l2 17q0 3 -4 8v11l3 13l-1 15l2 6l-3 25l2 24l-2 22l2 16l-1 46l-1 35l-2 19l3 33l-3 40l2 20l-2 28l-2 74l3 16l-2 27l1 25l-2 4v19z" />
            <glyph unicode="&#xcd;" horiz-adv-x="149" d="M30 605l2 12l-2 21v3l5 12l-4 -2v2q0 6 8 8h9h19q1 0 2 -1l8 1h19l4 2q14 -1 14 -6l1 -13l-2 -16l2 -14l-4 -18l2 -17l-2 -10l1 -14l1 -50v-77v-10l-3 -8l5 -28l-1 -85v-16l-1 -30q4 -5 4 -12l-1 -54v-55l2 -22l-2 -17l2 -15l-2 -6l1 -34l3 -11v-17l-4 -7l-10 -1l-12 -1 l-17 1l-31 -2h-2q-10 0 -10 7v1l2 19v33l2 17q0 3 -4 8v11l3 13l-1 15l2 6l-3 25l2 24l-2 22l2 16l-1 46l-1 35l-2 19l3 33l-3 40l2 20l-2 28l-2 74l3 16l-2 27l1 25l-2 4v19zM39 728q0 2 2 8l6 11l1 1q2 0 5 4l8 11l2 4q2 5 3 5l7 4q2 10 4 10l7 2l5 15l8 5l6 13 q7 16 20 16h3l25 -2q2 3 3 2l10 -1l17 2l13 -3l8 3l5 -6v-11l-2 1l-6 -6l-1 1l-8 -14l-8 -6l-12 -18l-11 -12l-8 -11l-20 -19v-2q-9 -11 -14 -13h-15l-16 2l-34 -2h-3q-4 -1 -7 1.5t-3 4.5z" />
            <glyph unicode="&#xce;" horiz-adv-x="149" d="M-73 727l5 13l13 12l2 2q0 1 2 3l8 6l11 15l3 4l5 3l1 3l10 8l5 9l14 9l5 10l8 7l6 8q3 3 7 3h1h2l10 3l13 -2l19 1l32 -1q8 0 10 -2l7 -9q0 -1 3 -1q2 -7 10 -8l12 -17l9 -5l6 -10l8 -5l5 -10l11 -3l8 -12l6 -3l7 -12l12 -10l-2 -10h-15l-9 -2h-15l-13 -1l-13 2l-16 -2 l-14 12l-7 11l-10 6l-3 8l-22 21l-12 3q0 -1 -3 -1h-2l1 -1q0 -1 -4 -5t-5 -6l-6 -9l-15 -14l-1 -4l-3 -2h-6l-1 -6l-2 -2l-10 -8l-5 -3l-13 1l-12 -2l-13 3l-18 -3l-6 1h-14q-3 4 -7 4zM30 605l2 12l-2 21v3l5 12l-4 -2v2q0 6 8 8h9h19q1 0 2 -1l8 1h19l4 2q14 -1 14 -6 l1 -13l-2 -16l2 -14l-4 -18l2 -17l-2 -10l1 -14l1 -50v-77v-10l-3 -8l5 -28l-1 -85v-16l-1 -30q4 -5 4 -12l-1 -54v-55l2 -22l-2 -17l2 -15l-2 -6l1 -34l3 -11v-17l-4 -7l-10 -1l-12 -1l-17 1l-31 -2h-2q-10 0 -10 7v1l2 19v33l2 17q0 3 -4 8v11l3 13l-1 15l2 6l-3 25l2 24 l-2 22l2 16l-1 46l-1 35l-2 19l3 33l-3 40l2 20l-2 28l-2 74l3 16l-2 27l1 25l-2 4v19z" />
            <glyph unicode="&#xcf;" horiz-adv-x="149" d="M-37 770l2 11l-2 14q0 2 3 8q0 3 3 4l8 7l4 1l12 -1l16 -1l4 2h15l6 -1q1 0 5 2l9 -4l2 -2l4 -9v-22l-1 -10l3 -1v-1l-1 -1q0 -1 -1 -2v-2l-1 -5l2 -7l-1 -15l-7 -11l-31 -1l-10 1l-19 -1l-12 2l-3 1l-7 9l-1 12l3 9zM30 605l2 12l-2 21v3l5 12l-4 -2v2q0 6 8 8h9h19 q1 0 2 -1l8 1h19l4 2q14 -1 14 -6l1 -13l-2 -16l2 -14l-4 -18l2 -17l-2 -10l1 -14l1 -50v-77v-10l-3 -8l5 -28l-1 -85v-16l-1 -30q4 -5 4 -12l-1 -54v-55l2 -22l-2 -17l2 -15l-2 -6l1 -34l3 -11v-17l-4 -7l-10 -1l-12 -1l-17 1l-31 -2h-2q-10 0 -10 7v1l2 19v33l2 17 q0 3 -4 8v11l3 13l-1 15l2 6l-3 25l2 24l-2 22l2 16l-1 46l-1 35l-2 19l3 33l-3 40l2 20l-2 28l-2 74l3 16l-2 27l1 25l-2 4v19zM97 799l5 10l10 4l12 -2l1 2h3h12l14 1l2 2l13 -4q2 1 4 1l6 -2l-2 -2l6 -3l3 -22l-4 -30l3 -12l-2 -14l-11 -6l-13 1l-22 -2l-4 4l-13 -3 l-15 1l-5 6v13l1 3l-1 3l-1 10l1 18z" />
            <glyph unicode="&#xd1;" horiz-adv-x="463" d="M32 566l2 18l1 20l-3 6l1 10h1q2 2 2 3q0 3 -3 6v21l-1 5q3 1 3 2v1l7 5l7 -1l15 1l8 -1l4 1h5h16l3 1l18 -5l8 -8l8 -5l34 -30l36 -30l3 -12l3 -3l12 -1l15 -14l5 -7l7 -3l7 -5l1 -5l10 -3l7 -14l14 -6l44 -41l11 -9l1 15l3 10l1 25l-2 5l-1 52l-3 11l5 10v5l-6 13l2 11 l-3 3l4 14l-1 3l1 14l6 7l14 -2h10l9 3q1 -1 2.5 -2t2.5 -2h13l5 4l11 -2l1 -5l5 -1v-66l-2 -6l2 -19v-68l-2 -21l2 -23l-2 -71l3 -11l1 -24v-69l2 -85l-3 -12l5 -20l-2 -27l3 -18l-2 -16l2 -16v-33l3 -33l-3 -12l-8 -4v-1h-13q-2 2 -3 2q-1 -1 -1 -2h-18l-5 2l-2 -2h-23 l-2 2l-4 1q-2 0 -2 9l1 10l2 12l-5 10l5 16l-3 18l3 13l-3 15l3 11l-2 31v13l4 -1l-5 18l1 16l-2 86l-2 9l2 7l-2 43l-5 16l-5 13l-25 21l-2 5l-6 6l-1 2l-8 5l-7 6l-9 12l-26 21l-9 11l-13 9l-9 10l-14 12l-12 8l-12 12l-4 5l-7 5l-6 4l-19 15l-2 3l-21 14h-5l-8 8l-1 -68 l3 -7l-1 -17l-2 -27l3 -14q-2 -2 -2 -9v-4l2 -138l-1 -29l3 -20v-16l-2 -12l2 -56l-2 -11l2 -4v-17l1 -73l1 -21v-1q0 -18 -13 -18l-25 -1l-9 1l-4 -1l-5 1h-20l1 1q0 2 -5 4l-3 9v39l2 29l1 53q0 2 1 3t1 3q0 3 -1 4q-2 3 -1 3v9l3 3l-4 9v8l3 15l-1 13l-1 55l2 14l-4 7 l1 10l2 3l-4 15l3 26l-2 12l3 11l-3 9v29l1 7l-1 68v5v2q0 3 1 5l1 13q0 12 -4 13l2 6l-1 14l-1 2l1 17zM74 751l2 13l14 32l9 7l1 5l16 16l29 14l9 3l10 -1l11 2l12 -2l48 -15l15 -6l11 -3l8 -3l12 -2l6 -2l1 2q1 0 1 -1l4 -2l19 5l12 10l7 11l3 8l7 5l17 -6l24 -15l7 -14 l-1 -5l-11 -15v-7l-6 -6l-6 -11l-4 -1l1 -4l-11 -7l-12 -13l-31 -8l-13 -1l-32 5q-4 5 -9 7l-9 2l-10 7l-15 2l-9 5l-21 8l-12 -1l-7 2l-4 -6l-11 -4l-9 -9l-4 -7l-1 -2l-3 -3l-3 -10l-13 -7l-31 12l-12 5z" />
            <glyph unicode="&#xd2;" horiz-adv-x="433" d="M20 428l2 14l-1 2v7v15l2 8l-1 10l6 32l11 37q0 2 6 5l2 2v9l14 16v4l10 12l13 16l15 11l26 16l14 5l14 6l25 5l35 2h17l13 -2h3l1 1q1 0 2 -1l10 1l17 -4q3 0 3 -2l1 -1q0 -3 8 -3l9 1l11 -6l8 -2l5 -8l5 1l8 -5l6 -13l3 -2l10 2l6 -13l13 -6l2 -7l3 -3v-6l7 -8v-2 l14 -26l6 -19v-15l5 -8l-1 -22l5 -7v-6v-28l-3 -37h-4v-15l-18 -47l-7 -11v-2q0 -1 -2 -3q0 -1 -1 -2t-2 -2.5t-1 -3.5h-1l-26 -28l-33 -22l-10 -4l-28 -8l-10 -6l-17 2l-9 -6l-8 3l-14 -2h-11l-31 3l-19 5l-6 -1l-9 10l-7 -2h-4q-6 0 -12 9l-11 4l-11 9l-10 7l-5 9l-12 6 l-4 4l-7 17q-2 3 -4 3h-1l-8 20l-6 9l-8 15l-2 10l1 3l-5 10l-2 19zM72 826l4 9q1 1 4 1h2l8 -2q1 0 4 3l12 2l10 -1l42 2l11 -4l17 -23l4 -2q1 -1 3 -4l3 -8l21 -20l5 -9q3 -5 8 -7q2 -2 3 -2l5 -8v-1q0 -3 4 -5l9 -5l1 -12l-3 -3l-15 -3h-64l-16 13l-9 11l-6 10l-12 11 l-12 9l-9 11l-6 5l-8 13l-8 7zM99 458l2 -10l-1 -4l1 -18l3 -5l-1 -4l1 -11l9 -15l5 -13l2 -5l13 -7v-13l9 2l3 -6l11 -9l16 -8l21 -7l18 -1l4 1l13 -1l27 5l25 11l17 11l10 13l5 11l5 7q2 2 2 5l2 4l5 13l4 12l4 32l-2 35l-2 16l-4 12l-4 14q-1 5 -1.5 6.5t-2 2l-4.5 1.5 l-7 15l-22 21l-16 11l-11 3h-7l-6 3l-9 1l-16 2l-17 -1l-12 -2l-25 -9l-5 -2q-1 0 -2 -0.5t-2 -0.5l-15 -12l-12 -13l-5 -9l-11 -11l-3 -14l-4 -10l-5 -25l-1 -18zM181 158l1 11l4 10l-4 4l-1 11l8 9l11 2l18 -2h10l7 3q2 0 5 -3l15 3q2 -2 4 -2h2l4 -7q2 -2 2 -4t-4 -12 l1 -3l1 -35l-1 -13q0 -9 -14 -9h-12l-13 1l-14 -1l-19 -1q-8 0 -8 6l-1 29zM184 7v4l1 11l3 14l-3 3l2 12l1 9l-1 18l9 5l5 2l12 -2l11 2l5 -4l17 2l10 -1l8 -1l2 -4v-57l-4 -15l-15 -6h-16l-15 2l-27 -2z" />
            <glyph unicode="&#xd3;" horiz-adv-x="433" d="M20 428l2 14l-1 2v7v15l2 8l-1 10l6 32l11 37q0 2 6 5l2 2v9l14 16v4l10 12l13 16l15 11l26 16l14 5l14 6l25 5l35 2h17l13 -2h3l1 1q1 0 2 -1l10 1l17 -4q3 0 3 -2l1 -1q0 -3 8 -3l9 1l11 -6l8 -2l5 -8l5 1l8 -5l6 -13l3 -2l10 2l6 -13l13 -6l2 -7l3 -3v-6l7 -8v-2 l14 -26l6 -19v-15l5 -8l-1 -22l5 -7v-6v-28l-3 -37h-4v-15l-18 -47l-7 -11v-2q0 -1 -2 -3q0 -1 -1 -2t-2 -2.5t-1 -3.5h-1l-26 -28l-33 -22l-10 -4l-28 -8l-10 -6l-17 2l-9 -6l-8 3l-14 -2h-11l-31 3l-19 5l-6 -1l-9 10l-7 -2h-4q-6 0 -12 9l-11 4l-11 9l-10 7l-5 9l-12 6 l-4 4l-7 17q-2 3 -4 3h-1l-8 20l-6 9l-8 15l-2 10l1 3l-5 10l-2 19zM99 458l2 -10l-1 -4l1 -18l3 -5l-1 -4l1 -11l9 -15l5 -13l2 -5l13 -7v-13l9 2l3 -6l11 -9l16 -8l21 -7l18 -1l4 1l13 -1l27 5l25 11l17 11l10 13l5 11l5 7q2 2 2 5l2 4l5 13l4 12l4 32l-2 35l-2 16l-4 12 l-4 14q-1 5 -1.5 6.5t-2 2l-4.5 1.5l-7 15l-22 21l-16 11l-11 3h-7l-6 3l-9 1l-16 2l-17 -1l-12 -2l-25 -9l-5 -2q-1 0 -2 -0.5t-2 -0.5l-15 -12l-12 -13l-5 -9l-11 -11l-3 -14l-4 -10l-5 -25l-1 -18zM181 158l1 11l4 10l-4 4l-1 11l8 9l11 2l18 -2h10l7 3q2 0 5 -3l15 3 q2 -2 4 -2h2l4 -7q2 -2 2 -4t-4 -12l1 -3l1 -35l-1 -13q0 -9 -14 -9h-12l-13 1l-14 -1l-19 -1q-8 0 -8 6l-1 29zM184 7v4l1 11l3 14l-3 3l2 12l1 9l-1 18l9 5l5 2l12 -2l11 2l5 -4l17 2l10 -1l8 -1l2 -4v-57l-4 -15l-15 -6h-16l-15 2l-27 -2zM186 728q0 2 2 8l6 11l1 1 q2 0 5 4l8 11l2 4q2 5 3 5l7 4q2 10 4 10l7 2l5 15l8 5l6 13q7 16 20 16h3l25 -2q2 3 3 2l10 -1l17 2l13 -3l8 3l5 -6v-11l-2 1l-6 -6l-1 1l-8 -14l-8 -6l-12 -18l-11 -12l-8 -11l-20 -19v-2q-9 -11 -14 -13h-15l-16 2l-34 -2h-3q-4 -1 -7 1.5t-3 4.5z" />
            <glyph unicode="&#xd4;" horiz-adv-x="433" d="M20 428l2 14l-1 2v7v15l2 8l-1 10l6 32l11 37q0 2 6 5l2 2v9l14 16v4l10 12l13 16l15 11l26 16l14 5l14 6l25 5l35 2h17l13 -2h3l1 1q1 0 2 -1l10 1l17 -4q3 0 3 -2l1 -1q0 -3 8 -3l9 1l11 -6l8 -2l5 -8l5 1l8 -5l6 -13l3 -2l10 2l6 -13l13 -6l2 -7l3 -3v-6l7 -8v-2 l14 -26l6 -19v-15l5 -8l-1 -22l5 -7v-6v-28l-3 -37h-4v-15l-18 -47l-7 -11v-2q0 -1 -2 -3q0 -1 -1 -2t-2 -2.5t-1 -3.5h-1l-26 -28l-33 -22l-10 -4l-28 -8l-10 -6l-17 2l-9 -6l-8 3l-14 -2h-11l-31 3l-19 5l-6 -1l-9 10l-7 -2h-4q-6 0 -12 9l-11 4l-11 9l-10 7l-5 9l-12 6 l-4 4l-7 17q-2 3 -4 3h-1l-8 20l-6 9l-8 15l-2 10l1 3l-5 10l-2 19zM69 727l5 13l13 12l2 2q0 1 2 3l8 6l11 15l3 4l5 3l1 3l10 8l5 9l14 9l5 10l8 7l6 8q3 3 7 3h1h2l10 3l13 -2l19 1l32 -1q8 0 10 -2l7 -9q0 -1 3 -1q2 -7 10 -8l12 -17l9 -5l6 -10l8 -5l5 -10l11 -3l8 -12 l6 -3l7 -12l12 -10l-2 -10h-15l-9 -2h-15l-13 -1l-13 2l-16 -2l-14 12l-7 11l-10 6l-3 8l-22 21l-12 3q0 -1 -3 -1h-2l1 -1q0 -1 -4 -5t-5 -6l-6 -9l-15 -14l-1 -4l-3 -2h-6l-1 -6l-2 -2l-10 -8l-5 -3l-13 1l-12 -2l-13 3l-18 -3l-6 1h-14q-3 4 -7 4zM99 458l2 -10l-1 -4 l1 -18l3 -5l-1 -4l1 -11l9 -15l5 -13l2 -5l13 -7v-13l9 2l3 -6l11 -9l16 -8l21 -7l18 -1l4 1l13 -1l27 5l25 11l17 11l10 13l5 11l5 7q2 2 2 5l2 4l5 13l4 12l4 32l-2 35l-2 16l-4 12l-4 14q-1 5 -1.5 6.5t-2 2l-4.5 1.5l-7 15l-22 21l-16 11l-11 3h-7l-6 3l-9 1l-16 2 l-17 -1l-12 -2l-25 -9l-5 -2q-1 0 -2 -0.5t-2 -0.5l-15 -12l-12 -13l-5 -9l-11 -11l-3 -14l-4 -10l-5 -25l-1 -18zM181 158l1 11l4 10l-4 4l-1 11l8 9l11 2l18 -2h10l7 3q2 0 5 -3l15 3q2 -2 4 -2h2l4 -7q2 -2 2 -4t-4 -12l1 -3l1 -35l-1 -13q0 -9 -14 -9h-12l-13 1l-14 -1 l-19 -1q-8 0 -8 6l-1 29zM184 7v4l1 11l3 14l-3 3l2 12l1 9l-1 18l9 5l5 2l12 -2l11 2l5 -4l17 2l10 -1l8 -1l2 -4v-57l-4 -15l-15 -6h-16l-15 2l-27 -2z" />
            <glyph unicode="&#xd5;" horiz-adv-x="433" d="M20 428l2 14l-1 2v7v15l2 8l-1 10l6 32l11 37q0 2 6 5l2 2v9l14 16v4l10 12l13 16l15 11l26 16l14 5l14 6l25 5l35 2h17l13 -2h3l1 1q1 0 2 -1l10 1l17 -4q3 0 3 -2l1 -1q0 -3 8 -3l9 1l11 -6l8 -2l5 -8l5 1l8 -5l6 -13l3 -2l10 2l6 -13l13 -6l2 -7l3 -3v-6l7 -8v-2 l14 -26l6 -19v-15l5 -8l-1 -22l5 -7v-6v-28l-3 -37h-4v-15l-18 -47l-7 -11v-2q0 -1 -2 -3q0 -1 -1 -2t-2 -2.5t-1 -3.5h-1l-26 -28l-33 -22l-10 -4l-28 -8l-10 -6l-17 2l-9 -6l-8 3l-14 -2h-11l-31 3l-19 5l-6 -1l-9 10l-7 -2h-4q-6 0 -12 9l-11 4l-11 9l-10 7l-5 9l-12 6 l-4 4l-7 17q-2 3 -4 3h-1l-8 20l-6 9l-8 15l-2 10l1 3l-5 10l-2 19zM59 751l2 13l14 32l9 7l1 5l16 16l29 14l9 3l10 -1l11 2l12 -2l48 -15l15 -6l11 -3l8 -3l12 -2l6 -2l1 2q1 0 1 -1l4 -2l19 5l12 10l7 11l3 8l7 5l17 -6l24 -15l7 -14l-1 -5l-11 -15v-7l-6 -6l-6 -11 l-4 -1l1 -4l-11 -7l-12 -13l-31 -8l-13 -1l-32 5q-4 5 -9 7l-9 2l-10 7l-15 2l-9 5l-21 8l-12 -1l-7 2l-4 -6l-11 -4l-9 -9l-4 -7l-2 -2q-1 -2 -2 -3l-3 -10l-13 -7l-31 12l-12 5zM99 458l2 -10l-1 -4l1 -18l3 -5l-1 -4l1 -11l9 -15l5 -13l2 -5l13 -7v-13l9 2l3 -6l11 -9 l16 -8l21 -7l18 -1l4 1l13 -1l27 5l25 11l17 11l10 13l5 11l5 7q2 2 2 5l2 4l5 13l4 12l4 32l-2 35l-2 16l-4 12l-4 14q-1 5 -1.5 6.5t-2 2l-4.5 1.5l-7 15l-22 21l-16 11l-11 3h-7l-6 3l-9 1l-16 2l-17 -1l-12 -2l-25 -9l-5 -2q-1 0 -2 -0.5t-2 -0.5l-15 -12l-12 -13l-5 -9 l-11 -11l-3 -14l-4 -10l-5 -25l-1 -18zM181 158l1 11l4 10l-4 4l-1 11l8 9l11 2l18 -2h10l7 3q2 0 5 -3l15 3q2 -2 4 -2h2l4 -7q2 -2 2 -4t-4 -12l1 -3l1 -35l-1 -13q0 -9 -14 -9h-12l-13 1l-14 -1l-19 -1q-8 0 -8 6l-1 29zM184 7v4l1 11l3 14l-3 3l2 12l1 9l-1 18l9 5l5 2 l12 -2l11 2l5 -4l17 2l10 -1l8 -1l2 -4v-57l-4 -15l-15 -6h-16l-15 2l-27 -2z" />
            <glyph unicode="&#xd6;" horiz-adv-x="433" d="M20 428l2 14l-1 2v7v15l2 8l-1 10l6 32l11 37q0 2 6 5l2 2v9l14 16v4l10 12l13 16l15 11l26 16l14 5l14 6l25 5l35 2h17l13 -2h3l1 1q1 0 2 -1l10 1l17 -4q3 0 3 -2l1 -1q0 -3 8 -3l9 1l11 -6l8 -2l5 -8l5 1l8 -5l6 -13l3 -2l10 2l6 -13l13 -6l2 -7l3 -3v-6l7 -8v-2 l14 -26l6 -19v-15l5 -8l-1 -22l5 -7v-6v-28l-3 -37h-4v-15l-18 -47l-7 -11v-2q0 -1 -2 -3q0 -1 -1 -2t-2 -2.5t-1 -3.5h-1l-26 -28l-33 -22l-10 -4l-28 -8l-10 -6l-17 2l-9 -6l-8 3l-14 -2h-11l-31 3l-19 5l-6 -1l-9 10l-7 -2h-4q-6 0 -12 9l-11 4l-11 9l-10 7l-5 9l-12 6 l-4 4l-7 17q-2 3 -4 3h-1l-8 20l-6 9l-8 15l-2 10l1 3l-5 10l-2 19zM99 458l2 -10l-1 -4l1 -18l3 -5l-1 -4l1 -11l9 -15l5 -13l2 -5l13 -7v-13l9 2l3 -6l11 -9l16 -8l21 -7l18 -1l4 1l13 -1l27 5l25 11l17 11l10 13l5 11l5 7q2 2 2 5l2 4l5 13l4 12l4 32l-2 35l-2 16l-4 12 l-4 14q-1 5 -1.5 6.5t-2 2l-4.5 1.5l-7 15l-22 21l-16 11l-11 3h-7l-6 3l-9 1l-16 2l-17 -1l-12 -2l-25 -9l-5 -2q-1 0 -2 -0.5t-2 -0.5l-15 -12l-12 -13l-5 -9l-11 -11l-3 -14l-4 -10l-5 -25l-1 -18zM105 770l2 11l-2 14q0 2 3 8q0 3 3 4l8 7l4 1l12 -1l16 -1l4 2h15l6 -1 q1 0 5 2l9 -4l2 -2l4 -9v-22l-1 -10l3 -1v-1l-1 -1q0 -1 -1 -2v-2l-1 -5l2 -7l-1 -15l-7 -11l-31 -1l-10 1l-19 -1l-12 2l-3 1l-7 9l-1 12l3 9zM181 158l1 11l4 10l-4 4l-1 11l8 9l11 2l18 -2h10l7 3q2 0 5 -3l15 3q2 -2 4 -2h2l4 -7q2 -2 2 -4t-4 -12l1 -3l1 -35l-1 -13 q0 -9 -14 -9h-12l-13 1l-14 -1l-19 -1q-8 0 -8 6l-1 29zM184 7v4l1 11l3 14l-3 3l2 12l1 9l-1 18l9 5l5 2l12 -2l11 2l5 -4l17 2l10 -1l8 -1l2 -4v-57l-4 -15l-15 -6h-16l-15 2l-27 -2zM239 799l5 10l10 4l12 -2l1 2h3h12l14 1l2 2l13 -4q2 1 4 1l6 -2l-2 -2l6 -3l3 -22 l-4 -30l3 -12l-2 -14l-11 -6l-13 1l-22 -2l-4 4l-13 -3l-15 1l-5 6v13l1 3l-1 3l-1 10l1 18z" />
            <glyph unicode="&#xd7;" horiz-adv-x="485" d="M40 149l148 147l-142 143l53 55l144 -143l144 144l54 -56l-143 -143l147 -147l-54 -54l-148 149l-148 -150z" />
            <glyph unicode="&#xd8;" horiz-adv-x="487" d="M19 304l1 29l2 45l4 31l8 51l5 11l1 8l3 15l14 38l8 13l-1 5l6 8l6 7l7 14l17 22q7 1 8 7l7 7l22 18l12 9l32 15l22 7l15 3l34 2l23 -4l11 1l7 -6l11 2l8 -7l15 -4l25 -18h14l3 9l13 24l8 11l13 -4l2 -3l11 -1l11 -10l8 -2q2 -5 4 -5l4 -1l7 -6l3 -7l-9 -20q-2 -2 -6 -4 l-1 -12h-3l-3 -6l-6 -12l-3 -1l-2 -8l-2 -4v-2v-2l3 -6l16 -35v-5l6 -11l2 -15l5 -11v-15l6 -11l1 -27l3 -36l3 -12l-1 -2l2 -12l-1 -19l4 -8l-3 -14l1 -22l-2 -6l3 -17l-3 -14l-2 -35l-5 -32l-5 -15v-14l-2 -2l-5 -18q-1 -8 -5 -12q-1 -1 -1 -2l-6 -15l-25 -45l-11 -9 l-11 -15l-15 -15l-13 -9l-19 -8l-7 -7l-30 -9l-28 -6l-23 -1l-5 -3l-41 2l-2 2l-12 5l-14 3l-9 8l-11 -2l-12 10h-6l-8 9l-10 -3v-4l-7 -4l-1 -10l-3 -5h-2v-1q0 -2 -2 -2h-1l-3 -11q-3 -2 -7 -4q-1 -10 -5 -10h-10l-15 9l-16 11l-17 13q-3 1 -3 5t1 6l6 16l3 3h3l15 22 l5 11l8 11v5l1 7q0 1 -1 2t-1 3l-12 26l-6 15l-7 14l-1 15l-7 17v18l-7 16l1 13v2v1q-1 6 -4 9l1 12l1 10l-5 9v7v3v2zM102 335l1 -43l4 -32l2 -3l-2 -3l2 -11l6 -29q3 -14 6 -12q5 0 10 9l5 10l1 3l13 19v3l1 1l1 1l5 12l9 10l4 14l7 10l12 19l9 21l19 32l5 6l6 13l8 13 l10 24l9 11l26 49l24 48l14 19l1 3q0 1 2 3l-3 13h-4q-1 5 -4 5h-3l-1.5 4.5t-1.5 0.5h-3l-14 6h-3l-11 6l-21 3l-19 -3l-4 1l-4 -1l-28 -11l-9 -5l-9 -4l-8 -10l-10 -8l-14 -20l-9 -10l-12 -26l-2 -10q-1 0 -1 -2v-1l-11 -36l-4 -25l-3 -12l-3 -47l1 -13zM163 108l14 -14 l14 -8h3l12 -8h11l14 -3l18 -3l17 3l14 3l37 18l10 12l11 8l2 5l9 11l3 8l8 10l3 15l-1 4l8 13l6 31l5 15v18l4 16l1 40h2v50l-3 20v31l-2 17l-5 17l1 6l-3 15l-5 16l-2 5q-2 1 -5 1q-6 0 -6 -3q0 -1 0.5 -1t0.5 -1l-17 -38l-3 -4l-6 -13l-3 -3l-13 -27l-8 -11l-3 -9l-6 -8 l-7 -11l-2 -1l-5 -14l-2 -3l-2 -4l-7 -14l-2 -4l-7 -12l-5 -8q-1 0 -1 -2v-3l-1 1l-9 -15l-6 -14l-6 -9l-9 -18l-8 -12l-1 -4l-15 -27l-5 -4l-5 -10l-1 -2v-2l-2 -6l-7 -11l-6 -7l-7 -16l-5 -5l-2 -8l-1 -2z" />
            <glyph unicode="&#xd9;" horiz-adv-x="451" d="M30 488l3 8l-2 6l1 8l3 7q1 2 1 7v2l-4 6l-1 43l-1 10l3 6v3q0 3 -3 6l4 23l-2 1v20l2 14l21 4h12l32 -1q4 0 9 -3.5t5 -6.5v-12l-1 -52q2 -6 2 -7v-3l-2 -14l2 -13l-2 -15l1 -32l-3 -18l1 -22l-1 -15l3 -14l-3 -13l1 -16l-1 -11l-1 -17l1 -21l-1 -21l1 -16l-1 -16l1 -15 l3 -18v-47l2 -17v-15l6 -27l8 -31l6 -12l5 -6l10 -15l13 -7l2 -4l5 -1l6 -4l16 -6l17 -2q5 0 8 -3h4h12l14 4l17 2l17 8l13 9l8 5q1 2 3 4l1 1q0 2 1 2l3 8l8 8l-1 11l8 10l5 18l3 18l1 12l2 15l-1 15v4q0 5 4 10l-2 6v13l3 9l-2 84v3v5l1 6l-1 52l-2 5v13l3 6l-1 6l-3 12 v51v44l-3 16l2 16l-1 15l-2 11l2 21l-4 16l2 4l7 9h7l21 2l33 -1h7q6 -3 8 -5l1 -12v-18l2 -53l-3 -23l2 -10l-2 -17l3 -28l-1 -5v-11l-1 -1l2 -2l-1 -6l2 -66l-1 -27l-1 -15l2 -16l-3 -7l5 -13l-1 -10l-3 -54l1 -6l1 -5l2 -3q2 -2 2 -3t-0.5 -1t-0.5 -1l-5 -8l3 -11l-1 -4 l-2 -1l-1 -32l-5 -41l-3 -14l-6 -14l3 -3l-2 -2l-14 -32l-12 -17l-27 -31l-15 -7l-5 -5q-6 0 -7 4l-11 -10l-18 -8l-16 -3l-1 -2l-17 -3l-23 -3l-29 2l-12 1l-11 4l-14 -1q-4 4 -7 4t-5 -2l-16 6l-6 7l-4 -4l-12 8l-9 7l-9 5l-4 8l-11 4l-5 7l-3 13l-3 -1q-6 0 -9 8l-14 32 l-10 32l-3 17v16l-4 16l2 11l-1 12l-4 8v37l-1 18l2 17l-1 12v26v44v37l2 12l-3 10l2 23l-3 3zM86 826l4 9q1 1 4 1h2l8 -2q1 0 4 3l12 2l10 -1l42 2l11 -4l17 -23l4 -2q1 -1 3 -4l3 -8l21 -20l5 -9q3 -5 8 -7q2 -2 3 -2l5 -8v-1q0 -3 4 -5l9 -5l1 -12l-3 -3l-15 -3h-64 l-16 13l-9 11l-6 10l-12 11l-12 9l-9 11l-6 5l-8 13l-8 7z" />
            <glyph unicode="&#xda;" horiz-adv-x="451" d="M30 488l3 8l-2 6l1 8l3 7q1 2 1 7v2l-4 6l-1 43l-1 10l3 6v3q0 3 -3 6l4 23l-2 1v20l2 14l21 4h12l32 -1q4 0 9 -3.5t5 -6.5v-12l-1 -52q2 -6 2 -7v-3l-2 -14l2 -13l-2 -15l1 -32l-3 -18l1 -22l-1 -15l3 -14l-3 -13l1 -16l-1 -11l-1 -17l1 -21l-1 -21l1 -16l-1 -16l1 -15 l3 -18v-47l2 -17v-15l6 -27l8 -31l6 -12l5 -6l10 -15l13 -7l2 -4l5 -1l6 -4l16 -6l17 -2q5 0 8 -3h4h12l14 4l17 2l17 8l13 9l8 5q1 2 3 4l1 1q0 2 1 2l3 8l8 8l-1 11l8 10l5 18l3 18l1 12l2 15l-1 15v4q0 5 4 10l-2 6v13l3 9l-2 84v3v5l1 6l-1 52l-2 5v13l3 6l-1 6l-3 12 v51v44l-3 16l2 16l-1 15l-2 11l2 21l-4 16l2 4l7 9h7l21 2l33 -1h7q6 -3 8 -5l1 -12v-18l2 -53l-3 -23l2 -10l-2 -17l3 -28l-1 -5v-11l-1 -1l2 -2l-1 -6l2 -66l-1 -27l-1 -15l2 -16l-3 -7l5 -13l-1 -10l-3 -54l1 -6l1 -5l2 -3q2 -2 2 -3t-0.5 -1t-0.5 -1l-5 -8l3 -11l-1 -4 l-2 -1l-1 -32l-5 -41l-3 -14l-6 -14l3 -3l-2 -2l-14 -32l-12 -17l-27 -31l-15 -7l-5 -5q-6 0 -7 4l-11 -10l-18 -8l-16 -3l-1 -2l-17 -3l-23 -3l-29 2l-12 1l-11 4l-14 -1q-4 4 -7 4t-5 -2l-16 6l-6 7l-4 -4l-12 8l-9 7l-9 5l-4 8l-11 4l-5 7l-3 13l-3 -1q-6 0 -9 8l-14 32 l-10 32l-3 17v16l-4 16l2 11l-1 12l-4 8v37l-1 18l2 17l-1 12v26v44v37l2 12l-3 10l2 23l-3 3zM179 728q0 2 2 8l6 11l1 1q2 0 5 4l8 11l2 4q2 5 3 5l7 4q2 10 4 10l7 2l5 15l8 5l6 13q7 16 20 16h3l25 -2q2 3 3 2l10 -1l17 2l13 -3l8 3l5 -6v-11l-2 1l-6 -6l-1 1l-8 -14 l-8 -6l-12 -18l-11 -12l-8 -11l-20 -19v-2q-9 -11 -14 -13h-15l-16 2l-34 -2h-3q-4 -1 -7 1.5t-3 4.5z" />
            <glyph unicode="&#xdb;" horiz-adv-x="451" d="M30 488l3 8l-2 6l1 8l3 7q1 2 1 7v2l-4 6l-1 43l-1 10l3 6v3q0 3 -3 6l4 23l-2 1v20l2 14l21 4h12l32 -1q4 0 9 -3.5t5 -6.5v-12l-1 -52q2 -6 2 -7v-3l-2 -14l2 -13l-2 -15l1 -32l-3 -18l1 -22l-1 -15l3 -14l-3 -13l1 -16l-1 -11l-1 -17l1 -21l-1 -21l1 -16l-1 -16l1 -15 l3 -18v-47l2 -17v-15l6 -27l8 -31l6 -12l5 -6l10 -15l13 -7l2 -4l5 -1l6 -4l16 -6l17 -2q5 0 8 -3h4h12l14 4l17 2l17 8l13 9l8 5q1 2 3 4l1 1q0 2 1 2l3 8l8 8l-1 11l8 10l5 18l3 18l1 12l2 15l-1 15v4q0 5 4 10l-2 6v13l3 9l-2 84v3v5l1 6l-1 52l-2 5v13l3 6l-1 6l-3 12 v51v44l-3 16l2 16l-1 15l-2 11l2 21l-4 16l2 4l7 9h7l21 2l33 -1h7q6 -3 8 -5l1 -12v-18l2 -53l-3 -23l2 -10l-2 -17l3 -28l-1 -5v-11l-1 -1l2 -2l-1 -6l2 -66l-1 -27l-1 -15l2 -16l-3 -7l5 -13l-1 -10l-3 -54l1 -6l1 -5l2 -3q2 -2 2 -3t-0.5 -1t-0.5 -1l-5 -8l3 -11l-1 -4 l-2 -1l-1 -32l-5 -41l-3 -14l-6 -14l3 -3l-2 -2l-14 -32l-12 -17l-27 -31l-15 -7l-5 -5q-6 0 -7 4l-11 -10l-18 -8l-16 -3l-1 -2l-17 -3l-23 -3l-29 2l-12 1l-11 4l-14 -1q-4 4 -7 4t-5 -2l-16 6l-6 7l-4 -4l-12 8l-9 7l-9 5l-4 8l-11 4l-5 7l-3 13l-3 -1q-6 0 -9 8l-14 32 l-10 32l-3 17v16l-4 16l2 11l-1 12l-4 8v37l-1 18l2 17l-1 12v26v44v37l2 12l-3 10l2 23l-3 3zM78 727l5 13l13 12l2 2q0 1 2 3l8 6l11 15l3 4l5 3l1 3l10 8l5 9l14 9l5 10l8 7l6 8q3 3 7 3h1h2l10 3l13 -2l19 1l32 -1q8 0 10 -2l7 -9q0 -1 3 -1q2 -7 10 -8l12 -17l9 -5 l6 -10l8 -5l5 -10l11 -3l8 -12l6 -3l7 -12l12 -10l-2 -10h-15l-9 -2h-15l-13 -1l-13 2l-16 -2l-14 12l-7 11l-10 6l-3 8l-22 21l-12 3q0 -1 -3 -1h-2l1 -1q0 -1 -4 -5t-5 -6l-6 -9l-15 -14l-1 -4l-3 -2h-6l-1 -6l-2 -2l-10 -8l-5 -3l-13 1l-12 -2l-13 3l-18 -3l-6 1h-14 q-3 4 -7 4z" />
            <glyph unicode="&#xdc;" horiz-adv-x="451" d="M30 488l3 8l-2 6l1 8l3 7q1 2 1 7v2l-4 6l-1 43l-1 10l3 6v3q0 3 -3 6l4 23l-2 1v20l2 14l21 4h12l32 -1q4 0 9 -3.5t5 -6.5v-12l-1 -52q2 -6 2 -7v-3l-2 -14l2 -13l-2 -15l1 -32l-3 -18l1 -22l-1 -15l3 -14l-3 -13l1 -16l-1 -11l-1 -17l1 -21l-1 -21l1 -16l-1 -16l1 -15 l3 -18v-47l2 -17v-15l6 -27l8 -31l6 -12l5 -6l10 -15l13 -7l2 -4l5 -1l6 -4l16 -6l17 -2q5 0 8 -3h4h12l14 4l17 2l17 8l13 9l8 5q1 2 3 4l1 1q0 2 1 2l3 8l8 8l-1 11l8 10l5 18l3 18l1 12l2 15l-1 15v4q0 5 4 10l-2 6v13l3 9l-2 84v3v5l1 6l-1 52l-2 5v13l3 6l-1 6l-3 12 v51v44l-3 16l2 16l-1 15l-2 11l2 21l-4 16l2 4l7 9h7l21 2l33 -1h7q6 -3 8 -5l1 -12v-18l2 -53l-3 -23l2 -10l-2 -17l3 -28l-1 -5v-11l-1 -1l2 -2l-1 -6l2 -66l-1 -27l-1 -15l2 -16l-3 -7l5 -13l-1 -10l-3 -54l1 -6l1 -5l2 -3q2 -2 2 -3t-0.5 -1t-0.5 -1l-5 -8l3 -11l-1 -4 l-2 -1l-1 -32l-5 -41l-3 -14l-6 -14l3 -3l-2 -2l-14 -32l-12 -17l-27 -31l-15 -7l-5 -5q-6 0 -7 4l-11 -10l-18 -8l-16 -3l-1 -2l-17 -3l-23 -3l-29 2l-12 1l-11 4l-14 -1q-4 4 -7 4t-5 -2l-16 6l-6 7l-4 -4l-12 8l-9 7l-9 5l-4 8l-11 4l-5 7l-3 13l-3 -1q-6 0 -9 8l-14 32 l-10 32l-3 17v16l-4 16l2 11l-1 12l-4 8v37l-1 18l2 17l-1 12v26v44v37l2 12l-3 10l2 23l-3 3zM114 770l2 11l-2 14q0 2 3 8q0 3 3 4l8 7l4 1l12 -1l16 -1l4 2h15l6 -1q1 0 5 2l9 -4l2 -2l4 -9v-22l-1 -10l3 -1l-1 -1v-1v-2l-1 -2l-1 -5l2 -7l-1 -15l-7 -11l-31 -1l-10 1 l-19 -1l-12 2l-3 1l-7 9l-1 12l3 9zM248 799l5 10l10 4l12 -2l1 2h3h12l14 1l2 2l13 -4q2 1 4 1l6 -2l-2 -2l6 -3l3 -22l-4 -30l3 -12l-2 -14l-11 -6l-13 1l-22 -2l-4 4l-13 -3l-15 1l-5 6v13l1 3l-1 3l-1 10l1 18z" />
            <glyph unicode="&#xdd;" horiz-adv-x="441" d="M197 728q0 2 2 8l6 11l1 1q2 0 5 4l8 11l2 4q2 5 3 5l7 4q2 10 4 10l7 2l5 15l8 5l6 13q7 16 20 16h3l25 -2q2 3 3 2l10 -1l17 2l13 -3l8 3l5 -6v-11l-2 1l-6 -6l-1 1l-8 -14l-8 -6l-12 -18l-11 -12l-8 -11l-20 -19v-2q-9 -11 -14 -13h-15l-16 2l-34 -2h-3q-4 -1 -7 1.5 t-3 4.5zM10 650l8 9h19h18l8 3l10 -4l13 2l12 -3l12 -30l2 -9l5 -2l1 -7l17 -40l17 -40l44 -90l6 -19l7 -12h3l7 -17l9 -2l8 5l6 17l3 1l4 13l37 86l6 17l3 1l8 21l7 13l5 3l-1 16l5 9l3 2v3q1 2 1 4l1 11l14 30q0 1 0.5 1t0.5 1q1 6 3 6l13 11l14 1l15 -2l12 1l15 1l4 1 l4 -2l11 -5l1 -9v-2q0 -3 -2 -7l-5 -7l-19 -48l-6 -7l-7 -19v-10q-8 -5 -8 -16l-16 -30l-4 -17l-11 -15l-26 -60l-13 -24l-39 -88l-9 -30l2 -13l-5 -6l4 -10v-2q0 -3 -3 -4l3 -41l-1 -12v-20l2 -14l-3 -10l3 -25v-1l2 -3h-2l-3 -17l5 -21l-3 -19l2 -20l2 -9l-7 -16l-5 -3 l-18 -2h-12l-36 2l-4 3l-3 12l-1 36l1 23l-2 15v14l2 20l-1 7l2 15v5q0 2 -1 2l-1 3v29v66l-3 32l-25 55l-7 12l-8 18l-6 5l-4 14l-21 38l-2 10l-11 20v2l-8 13l-7 19l-7 13l-2 2l-1 1q0 2 2 4l-3 6l-17 34l-7 16q-1 2 -5 14q0 2 -2 4l-9 11l-11 31l-4 7l-2 2q-2 4 -2 7z " />
            <glyph unicode="&#xdf;" horiz-adv-x="788" d="M21 49l21 45l6 8l11 6l23 -12l2 -2l11 -7l6 -1l3 -3l12 -2l2 -1l9 -2l12 -3l17 -1l27 1l11 4l25 6l18 8l23 17l25 27l13 24l5 15v7l3 9l-1 3l2 13v10l-2 8l-1 11l3 6l-6 12l-5 11v5l-9 14l-6 10l-32 37l-33 31l-12 9l-24 18l-5 8l-17 6l-25 19l-6 10l-12 3l-7 11l-11 4 l-6 11q0 4 -8 4l-7 10l-4 11l-11 8l-8 20l-5 16v17l-2 4l2 20l6 20l5 15l15 18l11 6l8 8l8 2l2 4l33 13l21 3h13l22 -1l12 1l4 -1h2l1 1h1l18 -2l12 -4l12 -2l7 -9l1 -17v-7l-1 -8v-15l-3 -15l-8 -5l-21 1l-13 1l-1 5l-19 -2l-5 6l-3 -1l-10 -2h-16l-19 -9l-12 -14l-2 -13 l6 -17l14 -16l23 -19l13 -9l21 -18l9 -5l1 -5h4l2 -4h3l25 -17l34 -32l13 -8l28 -26l16 -18l23 -33l5 -15l9 -13v-13l8 -15l-3 -8l8 -14l-6 -12l5 -2v-20l-6 -47l-3 -17l-14 -30l-6 -11l-1 -5l-11 -7l-1 -4l-5 -12l-23 -23l-25 -18l-33 -18l-33 -12l-34 -6h-18l-11 1l-14 -5 l-14 3l-13 2l-14 -1h-7l-11 8l-12 -5l-8 7l-14 4l-14 5l-12 9l-10 7zM400 49l21 45l6 8l11 6l23 -12l2 -2l11 -7l6 -1l3 -3l12 -2l2 -1l9 -2l12 -3l17 -1l27 1l11 4l25 6l18 8l23 17l25 27l13 24l5 15v7l3 9l-1 3l2 13v10l-2 8l-1 11l3 6l-6 12l-5 11v5l-9 14l-6 10l-32 37 l-33 31l-12 9l-24 18l-5 8l-17 6l-25 19l-6 10l-12 3l-7 11l-11 4l-6 11q0 4 -8 4l-7 10l-4 11l-11 8l-8 20l-5 16v17l-2 4l2 20l6 20l5 15l15 18l11 6l8 8l8 2l2 4l33 13l21 3h13l22 -1l12 1l4 -1h2l1 1h1l18 -2l12 -4l12 -2l7 -9l1 -17v-7l-1 -8v-15l-3 -15l-8 -5l-21 1 l-13 1l-1 5l-19 -2l-5 6l-3 -1l-10 -2h-16l-19 -9l-12 -14l-2 -13l6 -17l14 -16l23 -19l13 -9l21 -18l9 -5l1 -5h4l2 -4h3l25 -17l34 -32l13 -8l28 -26l16 -18l23 -33l5 -15l9 -13v-13l8 -15l-3 -8l8 -14l-6 -12l5 -2v-20l-6 -47l-3 -17l-14 -30l-6 -11l-1 -5l-11 -7l-1 -4 l-5 -12l-23 -23l-25 -18l-33 -18l-33 -12l-34 -6h-18l-11 1l-14 -5l-14 3l-13 2l-14 -1h-7l-11 8l-12 -5l-8 7l-14 4l-14 5l-12 9l-10 7z" />
            <glyph unicode="&#xe0;" d="M10 12l7 48l17 71l4 10l1 21l7 19l6 11l-2 15l9 34l8 38l17 56l3 20l10 38l2 17l9 17v11l23 89l-1 6q0 1 3 4l5 16l7 19v15l8 14v14l8 15l3 18l3 6l16 7l18 -1l17 3l18 -4h2l17 3l18 -7l7 -17l8 -26l22 -75l6 -13l3 -17l7 -14l8 -38l8 -21l5 -29l5 -12l3 -19l5 -13l2 -14 l6 -16l2 -15l9 -31v-7l4 -12l2 -15l4 -9v-15l8 -13l18 -83l5 -13l5 -19l3 -18q0 -3 2 -7q1 -3 2 -6.5t1.5 -5t0.5 -2.5l1 -16l8 -33l-6 -10l-13 -1l-5 -1l-15 2h-38l-9 4l-1 3l-2 11l-3 2l1 31l-6 17l1 14l-7 22l-27 117l1 12v7q0 6 -6 8l-5 21l-1 13l-6 16l-4 26l-3 10 l-3 5l-20 2l-29 3l-19 -3l-20 2l-15 -1l-10 1l-7 -3l-6 -9l-18 -71l-8 -42v-7l-10 -37l1 -2l-2 -20l-4 -9l-1 -22l-8 -17l-1 -20l-9 -34l-3 -45q0 -1 -4 -3q-8 -2 -9 -4l-15 2l-2 1q-2 0 -3 -2h-1q-1 -1 -2 -1l-3 3l-13 -2l-10 2l-15 -3l-8 5zM72 826l4 9q1 1 4 1h2l8 -2 q1 0 4 3l12 2l10 -1l42 2l11 -4l17 -23l4 -2q1 -1 3 -4l3 -8l21 -20l5 -9q3 -5 8 -7q2 -2 3 -2l5 -8v-1q0 -3 4 -5l9 -5l1 -12l-3 -3l-15 -3h-64l-16 13l-9 11l-6 10l-12 11l-12 9l-9 11l-6 5l-8 13l-8 7zM178 401q0 -6 4 -6l5 1h11l7 -4l16 5l38 -1l9 4l-1 16l-2 4l-17 5 l-12 -3l-16 1l-17 -3l1 4l-16 -2l-8 -8zM192 477l2 -5h18l11 -2h12l19 4l-3 15l-21 72l-5 23h-4l-7 -27l-5 -23l-5 -15l-8 -31z" />
            <glyph unicode="&#xe1;" d="M10 12l7 48l17 71l4 10l1 21l7 19l6 11l-2 15l9 34l8 38l17 56l3 20l10 38l2 17l9 17v11l23 89l-1 6q0 1 3 4l5 16l7 19v15l8 14v14l8 15l3 18l3 6l16 7l18 -1l17 3l18 -4h2l17 3l18 -7l7 -17l8 -26l22 -75l6 -13l3 -17l7 -14l8 -38l8 -21l5 -29l5 -12l3 -19l5 -13l2 -14 l6 -16l2 -15l9 -31v-7l4 -12l2 -15l4 -9v-15l8 -13l18 -83l5 -13l5 -19l3 -18q0 -3 2 -7q1 -3 2 -6.5t1.5 -5t0.5 -2.5l1 -16l8 -33l-6 -10l-13 -1l-5 -1l-15 2h-38l-9 4l-1 3l-2 11l-3 2l1 31l-6 17l1 14l-7 22l-27 117l1 12v7q0 6 -6 8l-5 21l-1 13l-6 16l-4 26l-3 10 l-3 5l-20 2l-29 3l-19 -3l-20 2l-15 -1l-10 1l-7 -3l-6 -9l-18 -71l-8 -42v-7l-10 -37l1 -2l-2 -20l-4 -9l-1 -22l-8 -17l-1 -20l-9 -34l-3 -45q0 -1 -4 -3q-8 -2 -9 -4l-15 2l-2 1q-2 0 -3 -2h-1q-1 -1 -2 -1l-3 3l-13 -2l-10 2l-15 -3l-8 5zM178 401q0 -6 4 -6l5 1h11 l7 -4l16 5l38 -1l9 4l-1 16l-2 4l-17 5l-12 -3l-16 1l-17 -3l1 4l-16 -2l-8 -8zM185 728q0 2 2 8l6 11l1 1q2 0 5 4l8 11l2 4q2 5 3 5l7 4q2 10 4 10l7 2l5 15l8 5l6 13q7 16 20 16h3l25 -2q2 3 3 2l10 -1l17 2l13 -3l8 3l5 -6v-11l-2 1l-6 -6l-1 1l-8 -14l-8 -6l-12 -18 l-11 -12l-8 -11l-20 -19v-2q-9 -11 -14 -13h-15l-16 2l-34 -2h-3q-4 -1 -7 1.5t-3 4.5zM192 477l2 -5h18l11 -2h12l19 4l-3 15l-21 72l-5 23h-4l-7 -27l-5 -23l-5 -15l-8 -31z" />
            <glyph unicode="&#xe2;" d="M10 12l7 48l17 71l4 10l1 21l7 19l6 11l-2 15l9 34l8 38l17 56l3 20l10 38l2 17l9 17v11l23 89l-1 6q0 1 3 4l5 16l7 19v15l8 14v14l8 15l3 18l3 6l16 7l18 -1l17 3l18 -4h2l17 3l18 -7l7 -17l8 -26l22 -75l6 -13l3 -17l7 -14l8 -38l8 -21l5 -29l5 -12l3 -19l5 -13l2 -14 l6 -16l2 -15l9 -31v-7l4 -12l2 -15l4 -9v-15l8 -13l18 -83l5 -13l5 -19l3 -18q0 -3 2 -7q1 -3 2 -6.5t1.5 -5t0.5 -2.5l1 -16l8 -33l-6 -10l-13 -1l-5 -1l-15 2h-38l-9 4l-1 3l-2 11l-3 2l1 31l-6 17l1 14l-7 22l-27 117l1 12v7q0 6 -6 8l-5 21l-1 13l-6 16l-4 26l-3 10 l-3 5l-20 2l-29 3l-19 -3l-20 2l-15 -1l-10 1l-7 -3l-6 -9l-18 -71l-8 -42v-7l-10 -37l1 -2l-2 -20l-4 -9l-1 -22l-8 -17l-1 -20l-9 -34l-3 -45q0 -1 -4 -3q-8 -2 -9 -4l-15 2l-2 1q-2 0 -3 -2h-1q-1 -1 -2 -1l-3 3l-13 -2l-10 2l-15 -3l-8 5zM72 727l5 13l13 12l2 2 q0 1 2 3l8 6l11 15l3 4l5 3l1 3l10 8l5 9l14 9l5 10l8 7l6 8q3 3 7 3h1h2l10 3l13 -2l19 1l32 -1q8 0 10 -2l7 -9q0 -1 3 -1q2 -7 10 -8l12 -17l9 -5l6 -10l8 -5l5 -10l11 -3l8 -12l6 -3l7 -12l12 -10l-2 -10h-15l-9 -2h-15l-13 -1l-13 2l-16 -2l-14 12l-7 11l-10 6l-3 8 l-22 21l-12 3q0 -1 -3 -1h-2l1 -1q0 -1 -4 -5t-5 -6l-6 -9l-15 -14l-1 -4l-3 -2h-6l-1 -6l-2 -2l-10 -8l-5 -3l-13 1l-12 -2l-13 3l-18 -3l-6 1h-14q-3 4 -7 4zM178 401q0 -6 4 -6l5 1h11l7 -4l16 5l38 -1l9 4l-1 16l-2 4l-17 5l-12 -3l-16 1l-17 -3l1 4l-16 -2l-8 -8z M192 477l2 -5h18l11 -2h12l19 4l-3 15l-21 72l-5 23h-4l-7 -27l-5 -23l-5 -15l-8 -31z" />
            <glyph unicode="&#xe3;" d="M10 12l7 48l17 71l4 10l1 21l7 19l6 11l-2 15l9 34l8 38l17 56l3 20l10 38l2 17l9 17v11l23 89l-1 6q0 1 3 4l5 16l7 19v15l8 14v14l8 15l3 18l3 6l16 7l18 -1l17 3l18 -4h2l17 3l18 -7l7 -17l8 -26l22 -75l6 -13l3 -17l7 -14l8 -38l8 -21l5 -29l5 -12l3 -19l5 -13l2 -14 l6 -16l2 -15l9 -31v-7l4 -12l2 -15l4 -9v-15l8 -13l18 -83l5 -13l5 -19l3 -18q0 -3 2 -7q1 -3 2 -6.5t1.5 -5t0.5 -2.5l1 -16l8 -33l-6 -10l-13 -1l-5 -1l-15 2h-38l-9 4l-1 3l-2 11l-3 2l1 31l-6 17l1 14l-7 22l-27 117l1 12v7q0 6 -6 8l-5 21l-1 13l-6 16l-4 26l-3 10 l-3 5l-20 2l-29 3l-19 -3l-20 2l-15 -1l-10 1l-7 -3l-6 -9l-18 -71l-8 -42v-7l-10 -37l1 -2l-2 -20l-4 -9l-1 -22l-8 -17l-1 -20l-9 -34l-3 -45q0 -1 -4 -3q-8 -2 -9 -4l-15 2l-2 1q-2 0 -3 -2h-1q-1 -1 -2 -1l-3 3l-13 -2l-10 2l-15 -3l-8 5zM72 751l2 13l14 32l9 7l1 5 l16 16l29 14l9 3l10 -1l11 2l12 -2l48 -15l15 -6l11 -3l8 -3l12 -2l6 -2l1 2q1 0 1 -1l4 -2l19 5l12 10l7 11l3 8l7 5l17 -6l24 -15l7 -14l-1 -5l-11 -15v-7l-6 -6l-6 -11l-4 -1l1 -4l-11 -7l-12 -13l-31 -8l-13 -1l-32 5q-4 5 -9 7l-9 2l-10 7l-15 2l-9 5l-21 8l-12 -1 l-7 2l-4 -6l-11 -4l-9 -9l-4 -7l-1 -2l-3 -3l-3 -10l-13 -7l-31 12l-12 5zM178 401q0 -6 4 -6l5 1h11l7 -4l16 5l38 -1l9 4l-1 16l-2 4l-17 5l-12 -3l-16 1l-17 -3l1 4l-16 -2l-8 -8zM192 477l2 -5h18l11 -2h12l19 4l-3 15l-21 72l-5 23h-4l-7 -27l-5 -23l-5 -15l-8 -31z " />
            <glyph unicode="&#xe4;" d="M10 12l7 48l17 71l4 10l1 21l7 19l6 11l-2 15l9 34l8 38l17 56l3 20l10 38l2 17l9 17v11l23 89l-1 6q0 1 3 4l5 16l7 19v15l8 14v14l8 15l3 18l3 6l16 7l18 -1l17 3l18 -4h2l17 3l18 -7l7 -17l8 -26l22 -75l6 -13l3 -17l7 -14l8 -38l8 -21l5 -29l5 -12l3 -19l5 -13l2 -14 l6 -16l2 -15l9 -31v-7l4 -12l2 -15l4 -9v-15l8 -13l18 -83l5 -13l5 -19l3 -18q0 -3 2 -7q1 -3 2 -6.5t1.5 -5t0.5 -2.5l1 -16l8 -33l-6 -10l-13 -1l-5 -1l-15 2h-38l-9 4l-1 3l-2 11l-3 2l1 31l-6 17l1 14l-7 22l-27 117l1 12v7q0 6 -6 8l-5 21l-1 13l-6 16l-4 26l-3 10 l-3 5l-20 2l-29 3l-19 -3l-20 2l-15 -1l-10 1l-7 -3l-6 -9l-18 -71l-8 -42v-7l-10 -37l1 -2l-2 -20l-4 -9l-1 -22l-8 -17l-1 -20l-9 -34l-3 -45q0 -1 -4 -3q-8 -2 -9 -4l-15 2l-2 1q-2 0 -3 -2h-1q-1 -1 -2 -1l-3 3l-13 -2l-10 2l-15 -3l-8 5zM115 770l2 11l-2 14q0 2 3 8 q0 3 3 4l8 7l4 1l12 -1l16 -1l4 2h15l6 -1q1 0 5 2l9 -4l2 -2l4 -9v-22l-1 -10l3 -1v-1l-1 -1q0 -1 -1 -2v-2l-1 -5l2 -7l-1 -15l-7 -11l-31 -1l-10 1l-19 -1l-12 2l-3 1l-7 9l-1 12l3 9zM178 401q0 -6 4 -6l5 1h11l7 -4l16 5l38 -1l9 4l-1 16l-2 4l-17 5l-12 -3l-16 1 l-17 -3l1 4l-16 -2l-8 -8zM192 477l2 -5h18l11 -2h12l19 4l-3 15l-21 72l-5 23h-4l-7 -27l-5 -23l-5 -15l-8 -31zM249 799l5 10l10 4l12 -2l1 2h3h12l14 1l2 2l13 -4q2 1 4 1q1 0 3 -1t3 -1l-2 -2l6 -3l3 -22l-4 -30l3 -12l-2 -14l-11 -6l-13 1l-22 -2l-4 4l-13 -3l-15 1 l-5 6v13l1 3l-1 3l-1 10l1 18z" />
            <glyph unicode="&#xe5;" d="M10 12l7 48l17 71l4 10l1 21l7 19l6 11l-2 15l9 34l8 38l17 56l3 20l10 38l2 17l9 17v11l23 89l-1 6q0 1 3 4l5 16l7 19v15l8 14v14l8 15l3 18l3 6l16 7l18 -1l17 3l18 -4h2l17 3l18 -7l7 -17l8 -26l22 -75l6 -13l3 -17l7 -14l8 -38l8 -21l5 -29l5 -12l3 -19l5 -13l2 -14 l6 -16l2 -15l9 -31v-7l4 -12l2 -15l4 -9v-15l8 -13l18 -83l5 -13l5 -19l3 -18q0 -3 2 -7q1 -3 2 -6.5t1.5 -5t0.5 -2.5l1 -16l8 -33l-6 -10l-13 -1l-5 -1l-15 2h-38l-9 4l-1 3l-2 11l-3 2l1 31l-6 17l1 14l-7 22l-27 117l1 12v7q0 6 -6 8l-5 21l-1 13l-6 16l-4 26l-3 10 l-3 5l-20 2l-29 3l-19 -3l-20 2l-15 -1l-10 1l-7 -3l-6 -9l-18 -71l-8 -42v-7l-10 -37l1 -2l-2 -20l-4 -9l-1 -22l-8 -17l-1 -20l-9 -34l-3 -45q0 -1 -4 -3q-8 -2 -9 -4l-15 2l-2 1q-2 0 -3 -2h-1q-1 -1 -2 -1l-3 3l-13 -2l-10 2l-15 -3l-8 5zM120 792v16v13l4 15l6 13l6 9 v2h2l1 7l24 20l12 7l7 2l4 2l12 5l28 3h14l28 -6l9 -6l10 -3l20 -20l6 -7q1 -1 1 -3l12 -25l4 -12v-12l3 -14q-2 -4 -3 -4l-1 -1v-9l-3 -15l-2 -2l-5 -14l-4 -2l-6 -14l-12 -9q-7 -6 -10 -6l-3 -4l-15 -7l-19 -6h-12l-2 -1h-10l-14 -1q-5 5 -7 5q-1 0 -5 -2l-3 4l-17 3 l-24 11l-6 8l-8 8l-6 10l-6 10l-5 14zM178 401q0 -6 4 -6l5 1h11l7 -4l16 5l38 -1l9 4l-1 16l-2 4l-17 5l-12 -3l-16 1l-17 -3l1 4l-16 -2l-8 -8zM182 799l4 -18l8 -12l2 -1l14 -8h10l7 -1h5l9 1l17 12l8 8l5 19l-2 20l-7 15h-4l-6 10l-14 6h-18l-9 -1l-14 -10l-10 -13 l-3 -10zM192 477l2 -5h18l11 -2h12l19 4l-3 15l-21 72l-5 23h-4l-7 -27l-5 -23l-5 -15l-8 -31z" />
            <glyph unicode="&#xe6;" horiz-adv-x="605" d="M-1 9v5l4 18l2 5l3 11l2 10l7 19l-1 2l4 7l5 14l-1 2l13 35l27 72l8 19l3 14l9 13l4 15l14 31l5 15l21 45l8 22l37 80l11 19l10 24l3 4l2 -1l4 12l1 2l10 21l18 35l10 23l11 20l13 17l4 7l9 8l26 4h14l5 -1l4 2l16 -1l5 2h8l13 1l16 -1l2 -1l27 2l9 -1l10 3l19 -2l17 3 l10 -4l18 3l11 -6l3 -6l-1 -15l3 -15l-3 -8l1 -16l-8 -3q0 -1 -7 -2v-1l-18 1l-34 1l-16 -1l-14 -2l-4 -10l1 -21q4 -4 4 -8l6 -2l26 3l13 -1l11 2l17 -1h13h13l6 2l14 -2l30 2l7 1l12 -9l1 -3l1 -27l-3 -11l2 -6l-3 -8q-2 -6 -4 -6h-3l-16 -1l-19 -1h-12l-40 -1l-13 -2 l-5 3l-6 -2l-11 2l-16 -3l-4 1l-12 -4l-7 -6l-1 -67l1 -25l1 -69l1 -12l-3 -15l3 -20l-1 -3v-38v-25l1 -14l-1 -5l1 -28l-2 -17l1 -10l-2 -15l2 -12l3 -15l3 -4l19 -3l52 -1l14 2l16 -1l15 2l5 1l6 -4l21 1h4l4 -7l1 -35l2 -17l-2 -7l-11 -8l-24 3l-15 -2l-15 -1h-13l-9 2 q-2 0 -4 -2l-17 1l-11 -2l-18 1l-9 -2l-6 1l-11 -1l-12 1l-8 -1l-5 1h-33q-14 0 -14 2l-4 7l-5 8l3 38l-4 10l1 14l-1 31l2 17l-3 13l2 5q4 0 4 5v8l-2 9l1 10l-1 27v50l1 14l-2 28l1 12l-1 15l2 14v5q0 3 -1 4l-9 6l-79 -1l-10 1l-28 -3l-12 -10l-2 -5l-3 -3l-9 -26l-4 -4 l-3 -13l-6 -10l-21 -54l-10 -28l-3 -14q-2 -11 -5 -11v-2l-5 -19l-7 -15l-3 -15l-2 -5l-3 -11l-2 1v-2l-3 -15l-2 -9l-5 -6v-4l-4 -11l-2 -3l1 -4l-3 -11l-4 -3l2 -8l-5 -10l-3 -13l-12 -4l-9 -2l-39 1l-3 -1l-14 2zM232 413l4 -8q2 -2 4 -2q3 0 6 2h3q3 0 7 -4h3l13 4 l16 -3l33 2l14 6l-1 16l-4 13l-39 1l-19 -3l-6 2l-16 -2q-4 -4 -6 -4q-1 1 -3 1l2 -3l-3 1l-2 -4zM273 489l11 -2l11 3q5 -3 6 -3t6 3l4 -1l14 2l5 6l1 25l1 3l-1 7v30l-3 11q-1 0 -3 1l-3 2h-3l-9 -8l-8 -13l-7 -16l-8 -9l-4 -14l-2 -2l-7 -17z" />
            <glyph unicode="&#xe7;" horiz-adv-x="363" d="M20 381l2 13l5 52l3 11l-2 5l3 10l6 14l4 16l12 34l15 28l10 17l8 7l6 11l9 3l4 8l25 20l11 4l12 9l13 6h5l30 9l14 2l17 5q4 -2 6 -2t6 3l11 -6l6 4l15 1l17 -1l6 -2h10l28 -6q8 -2 8 -10v-2l-1 -5l2 -17l-4 -15l2 -17l-1 -9h-3l-1 -6h-12l-16 5l-13 2l-6 7l-11 -5 l-11 -1l-3 3l-13 -2l-10 1l-13 -4l-16 -1q-4 -1 -8 -6l-12 -1l-27 -17l-18 -19l-20 -31l-19 -49l-7 -45l-3 -5l2 -8l-3 -16l3 -8l-3 -14l2 -9l-1 -42l3 -18l2 -6q1 -1 1 -2q1 -2 1 -3l2 -19l4 -14l8 -28l4 -16l13 -28l16 -27l11 -12l22 -22l14 -8l10 -8h5l14 -4l14 -6h13 l10 -3l11 3l11 -5l16 -2l19 1l15 -3l5 -1l5 -14l-1 -40l-2 -10l-8 -5l-1 -1l-49 1l-13 6l2 -5l-11 2v-5v-10l11 -5l8 -5l11 -12l8 -14l6 -13l1 -16l2 -4l-2 -26l-6 -9l-3 -6l-12 -18l-10 -7q-5 -4 -6 -7l-15 -7l-16 -6l-32 -5l-11 1l-6 6h-5l1 2l-2 4l-3 32l1 9l15 3l5 -2 l15 4l11 5q3 5 8 8v9l6 2l-2 14l-3 9l-16 17l-15 7l-10 3l-8 6l2 12l5 2l-1 4l4 10l5 15l-24 9l-14 7l-2 2l-4 1l-26 17l-28 26l-20 22l-6 12v6l-9 11l-10 16l-7 16l-3 11l-12 20v13l-6 16l-9 41v19l-5 11l4 11l-3 13l-2 38l2 10z" />
            <glyph unicode="&#xe8;" horiz-adv-x="303" d="M-28 826l4 9q1 1 4 1h2l8 -2q1 0 4 3l12 2l10 -1l42 2l11 -4l17 -23l4 -2q1 -1 3 -4l3 -8l21 -20l5 -9q3 -5 8 -7q2 -2 3 -2l5 -8v-1q0 -3 4 -5l9 -5l1 -12l-3 -3l-15 -3h-64l-16 13l-9 11l-6 10l-12 11l-12 9l-9 11l-6 5l-8 13l-8 7zM30 9v18v7v6l1 13l6 8l-5 7v16 l-1 11l1 70l-1 14v26l2 5v18l-3 6l1 2l-1 9l1 69l1 3l-1 11l5 4l-6 12l6 14q-6 10 -6 17l1 58l1 12v18l-2 39q0 4 1 4h1l1 11l-2 3v5v2l1 9l-2 4l1 51l-1 46l3 22l12 5l6 -2l10 2l4 -2q1 0 4 3l4 -1l37 -1l8 2v-2l16 1l28 -2l12 2l12 -1l11 3l12 -9l1 -14v-33l-3 -13l-20 -3 h-20l-6 3l-29 -1h-10q-1 0 -7 2l-2 -6t-2 -5l-1 -2v-17v-12q4 -4 6 -4l13 2l15 -1q7 0 11 -4l2 1q1 0 3 -2l15 6l5 -4l16 4l20 -1l41 1l21 -1l2 -2l2 -12l1 -23l-2 -12l2 -5l-5 -15l-15 -1l-36 1l-35 -2q-3 4 -4 4l-9 -2l-15 -1h-26l-20 1l-9 -7l1 -12v-22v-19v-23l-1 -32 l2 -74l-2 -5l-2 -9l5 -4l-4 -13l5 -5l-1 -9l-1 -10l2 -15q-3 -5 -3 -7t3 -6l-3 -8v-15l-2 -5l3 -7l-1 -14l2 -6v-4q0 -3 -2 -3l-1 -1l3 -13l-3 -27l3 -9l-1 -14l2 -12l7 -2l13 3q6 -4 8 -4q2 1 5 1l10 2l15 -3h2l4 1v1v1l18 1l25 -1l3 -2v3l24 -2l14 2l9 -4l2 -17l-2 -18 l1 -2l-1 -7l1 -14v-6l-8 -7h-26h-16l-14 -2l-4 2l-7 -1l-34 -1h-9l-4 1l-17 -1l-12 3l-9 -2l-11 -2l-2 -1l-12 5l-4 -2h-8l-13 -1l-6 2l-17 -1z" />
            <glyph unicode="&#xe9;" horiz-adv-x="303" d="M30 9v18v7v6l1 13l6 8l-5 7v16l-1 11l1 70l-1 14v26l2 5v18l-3 6l1 2l-1 9l1 69l1 3l-1 11l5 4l-6 12l6 14q-6 10 -6 17l1 58l1 12v18l-2 39q0 4 1 4h1l1 11l-2 3v5v2l1 9l-2 4l1 51l-1 46l3 22l12 5l6 -2l10 2l4 -2q1 0 4 3l4 -1l37 -1l8 2v-2l16 1l28 -2l12 2l12 -1 l11 3l12 -9l1 -14v-33l-3 -13l-20 -3h-20l-6 3l-29 -1h-10q-1 0 -7 2l-2 -6t-2 -5l-1 -2v-17v-12q4 -4 6 -4l13 2l15 -1q7 0 11 -4l2 1q1 0 3 -2l15 6l5 -4l16 4l20 -1l41 1l21 -1l2 -2l2 -12l1 -23l-2 -12l2 -5l-5 -15l-15 -1l-36 1l-35 -2q-3 4 -4 4l-9 -2l-15 -1h-26 l-20 1l-9 -7l1 -12v-22v-19v-23l-1 -32l2 -74l-2 -5l-2 -9l5 -4l-4 -13l5 -5l-1 -9l-1 -10l2 -15q-3 -5 -3 -7t3 -6l-3 -8v-15l-2 -5l3 -7l-1 -14l2 -6v-4q0 -3 -2 -3l-1 -1l3 -13l-3 -27l3 -9l-1 -14l2 -12l7 -2l13 3q6 -4 8 -4q2 1 5 1l10 2l15 -3h2l4 1v1v1l18 1l25 -1 l3 -2v3l24 -2l14 2l9 -4l2 -17l-2 -18l1 -2l-1 -7l1 -14v-6l-8 -7h-26h-16l-14 -2l-4 2l-7 -1l-34 -1h-9l-4 1l-17 -1l-12 3l-9 -2l-11 -2l-2 -1l-12 5l-4 -2h-8l-13 -1l-6 2l-17 -1zM79 728q0 2 2 8l6 11l1 1q2 0 5 4l8 11l2 4q2 5 3 5l7 4q2 10 4 10l7 2l5 15l8 5l6 13 q7 16 20 16h3l25 -2q2 3 3 2l10 -1l17 2l13 -3l8 3l5 -6v-11l-2 1l-6 -6l-1 1l-8 -14l-8 -6l-12 -18l-11 -12l-8 -11l-20 -19v-2q-9 -11 -14 -13h-15l-16 2l-34 -2h-3q-4 -1 -7 1.5t-3 4.5z" />
            <glyph unicode="&#xea;" horiz-adv-x="303" d="M-15 727l5 13l13 12l2 2q0 1 2 3l8 6l11 15l3 4l5 3l1 3l10 8l5 9l14 9l5 10l8 7l6 8q3 3 7 3h1h2l10 3l13 -2l19 1l32 -1q8 0 10 -2l7 -9q0 -1 3 -1q2 -7 10 -8l12 -17l9 -5l6 -10l8 -5l5 -10l11 -3l8 -12l6 -3l7 -12l12 -10l-2 -10h-15l-9 -2h-15l-13 -1l-13 2l-16 -2 l-14 12l-7 11l-10 6l-3 8l-22 21l-12 3q0 -1 -3 -1h-2l1 -1q0 -1 -4 -5t-5 -6l-6 -9l-15 -14l-1 -4l-3 -2h-6l-1 -6l-2 -2l-10 -8l-5 -3l-13 1l-12 -2l-13 3l-18 -3l-6 1h-14q-3 4 -7 4zM30 9v18v7v6l1 13l6 8l-5 7v16l-1 11l1 70l-1 14v26l2 5v18l-3 6l1 2l-1 9l1 69l1 3 l-1 11l5 4l-6 12l6 14q-6 10 -6 17l1 58l1 12v18l-2 39q0 4 1 4h1l1 11l-2 3v5v2l1 9l-2 4l1 51l-1 46l3 22l12 5l6 -2l10 2l4 -2q1 0 4 3l4 -1l37 -1l8 2v-2l16 1l28 -2l12 2l12 -1l11 3l12 -9l1 -14v-33l-3 -13l-20 -3h-20l-6 3l-29 -1h-10q-1 0 -7 2l-2 -6t-2 -5l-1 -2 v-17v-12q4 -4 6 -4l13 2l15 -1q7 0 11 -4l2 1q1 0 3 -2l15 6l5 -4l16 4l20 -1l41 1l21 -1l2 -2l2 -12l1 -23l-2 -12l2 -5l-5 -15l-15 -1l-36 1l-35 -2q-3 4 -4 4l-9 -2l-15 -1h-26l-20 1l-9 -7l1 -12v-22v-19v-23l-1 -32l2 -74l-2 -5l-2 -9l5 -4l-4 -13l5 -5l-1 -9l-1 -10 l2 -15q-3 -5 -3 -7t3 -6l-3 -8v-15l-2 -5l3 -7l-1 -14l2 -6v-4q0 -3 -2 -3l-1 -1l3 -13l-3 -27l3 -9l-1 -14l2 -12l7 -2l13 3q6 -4 8 -4q2 1 5 1l10 2l15 -3h2l4 1v1v1l18 1l25 -1l3 -2v3l24 -2l14 2l9 -4l2 -17l-2 -18l1 -2l-1 -7l1 -14v-6l-8 -7h-26h-16l-14 -2l-4 2 l-7 -1l-34 -1h-9l-4 1l-17 -1l-12 3l-9 -2l-11 -2l-2 -1l-12 5l-4 -2h-8l-13 -1l-6 2l-17 -1z" />
            <glyph unicode="&#xeb;" horiz-adv-x="303" d="M30 9v18v7v6l1 13l6 8l-5 7v16l-1 11l1 70l-1 14v26l2 5v18l-3 6l1 2l-1 9l1 69l1 3l-1 11l5 4l-6 12l6 14q-6 10 -6 17l1 58l1 12v18l-2 39q0 4 1 4h1l1 11l-2 3v5v2l1 9l-2 4l1 51l-1 46l3 22l12 5l6 -2l10 2l4 -2q1 0 4 3l4 -1l37 -1l8 2v-2l16 1l28 -2l12 2l12 -1 l11 3l12 -9l1 -14v-33l-3 -13l-20 -3h-20l-6 3l-29 -1h-10q-1 0 -7 2l-2 -6t-2 -5l-1 -2v-17v-12q4 -4 6 -4l13 2l15 -1q7 0 11 -4l2 1q1 0 3 -2l15 6l5 -4l16 4l20 -1l41 1l21 -1l2 -2l2 -12l1 -23l-2 -12l2 -5l-5 -15l-15 -1l-36 1l-35 -2q-3 4 -4 4l-9 -2l-15 -1h-26 l-20 1l-9 -7l1 -12v-22v-19v-23l-1 -32l2 -74l-2 -5l-2 -9l5 -4l-4 -13l5 -5l-1 -9l-1 -10l2 -15q-3 -5 -3 -7t3 -6l-3 -8v-15l-2 -5l3 -7l-1 -14l2 -6v-4q0 -3 -2 -3l-1 -1l3 -13l-3 -27l3 -9l-1 -14l2 -12l7 -2l13 3q6 -4 8 -4q2 1 5 1l10 2l15 -3h2l4 1v1v1l18 1l25 -1 l3 -2v3l24 -2l14 2l9 -4l2 -17l-2 -18l1 -2l-1 -7l1 -14v-6l-8 -7h-26h-16l-14 -2l-4 2l-7 -1l-34 -1h-9l-4 1l-17 -1l-12 3l-9 -2l-11 -2l-2 -1l-12 5l-4 -2h-8l-13 -1l-6 2l-17 -1zM33 770l2 11l-2 14q0 2 3 8q0 3 3 4l8 7l4 1l12 -1l16 -1l4 2h15l6 -1q1 0 5 2l9 -4l2 -2 l4 -9v-22l-1 -10l3 -1v-1l-1 -1q0 -1 -1 -2v-2l-1 -5l2 -7l-1 -15l-7 -11l-31 -1l-10 1l-19 -1l-12 2l-3 1l-7 9l-1 12l3 9zM167 799l5 10l10 4l12 -2l1 2h3h12l14 1l2 2l13 -4q2 1 4 1l6 -2l-2 -2l6 -3l3 -22l-4 -30l3 -12l-2 -14l-11 -6l-13 1l-22 -2l-4 4l-13 -3l-15 1 l-5 6v13l1 3l-1 3l-1 10l1 18z" />
            <glyph unicode="&#xec;" horiz-adv-x="149" d="M-68 826l4 9q1 1 4 1h2l8 -2q1 0 4 3l12 2l10 -1l42 2l11 -4l17 -23l4 -2q1 -1 3 -4l3 -8l21 -20l5 -9q3 -5 8 -7q2 -2 3 -2l5 -8v-1q0 -3 4 -5l9 -5l1 -12l-3 -3l-15 -3h-64l-16 13l-9 11l-6 10l-12 11l-12 9l-9 11l-6 5l-8 13l-8 7zM30 605l2 12l-2 21v3l5 12l-4 -2v2 q0 6 8 8h9h19q1 0 2 -1l8 1h19l4 2q14 -1 14 -6l1 -13l-2 -16l2 -14l-4 -18l2 -17l-2 -10l1 -14l1 -50v-77v-10l-3 -8l5 -28l-1 -85v-16l-1 -30q4 -5 4 -12l-1 -54v-55l2 -22l-2 -17l2 -15l-2 -6l1 -34l3 -11v-17l-4 -7l-10 -1l-12 -1l-17 1l-31 -2h-2q-10 0 -10 7v1l2 19 v33l2 17q0 3 -4 8v11l3 13l-1 15l2 6l-3 25l2 24l-2 22l2 16l-1 46l-1 35l-2 19l3 33l-3 40l2 20l-2 28l-2 74l3 16l-2 27l1 25l-2 4v19z" />
            <glyph unicode="&#xed;" horiz-adv-x="149" d="M30 605l2 12l-2 21v3l5 12l-4 -2v2q0 6 8 8h9h19q1 0 2 -1l8 1h19l4 2q14 -1 14 -6l1 -13l-2 -16l2 -14l-4 -18l2 -17l-2 -10l1 -14l1 -50v-77v-10l-3 -8l5 -28l-1 -85v-16l-1 -30q4 -5 4 -12l-1 -54v-55l2 -22l-2 -17l2 -15l-2 -6l1 -34l3 -11v-17l-4 -7l-10 -1l-12 -1 l-17 1l-31 -2h-2q-10 0 -10 7v1l2 19v33l2 17q0 3 -4 8v11l3 13l-1 15l2 6l-3 25l2 24l-2 22l2 16l-1 46l-1 35l-2 19l3 33l-3 40l2 20l-2 28l-2 74l3 16l-2 27l1 25l-2 4v19zM39 728q0 2 2 8l6 11l1 1q2 0 5 4l8 11l2 4q2 5 3 5l7 4q2 10 4 10l7 2l5 15l8 5l6 13 q7 16 20 16h3l25 -2q2 3 3 2l10 -1l17 2l13 -3l8 3l5 -6v-11l-2 1l-6 -6l-1 1l-8 -14l-8 -6l-12 -18l-11 -12l-8 -11l-20 -19v-2q-9 -11 -14 -13h-15l-16 2l-34 -2h-3q-4 -1 -7 1.5t-3 4.5z" />
            <glyph unicode="&#xee;" horiz-adv-x="149" d="M-73 727l5 13l13 12l2 2q0 1 2 3l8 6l11 15l3 4l5 3l1 3l10 8l5 9l14 9l5 10l8 7l6 8q3 3 7 3h1h2l10 3l13 -2l19 1l32 -1q8 0 10 -2l7 -9q0 -1 3 -1q2 -7 10 -8l12 -17l9 -5l6 -10l8 -5l5 -10l11 -3l8 -12l6 -3l7 -12l12 -10l-2 -10h-15l-9 -2h-15l-13 -1l-13 2l-16 -2 l-14 12l-7 11l-10 6l-3 8l-22 21l-12 3q0 -1 -3 -1h-2l1 -1q0 -1 -4 -5t-5 -6l-6 -9l-15 -14l-1 -4l-3 -2h-6l-1 -6l-2 -2l-10 -8l-5 -3l-13 1l-12 -2l-13 3l-18 -3l-6 1h-14q-3 4 -7 4zM30 605l2 12l-2 21v3l5 12l-4 -2v2q0 6 8 8h9h19q1 0 2 -1l8 1h19l4 2q14 -1 14 -6 l1 -13l-2 -16l2 -14l-4 -18l2 -17l-2 -10l1 -14l1 -50v-77v-10l-3 -8l5 -28l-1 -85v-16l-1 -30q4 -5 4 -12l-1 -54v-55l2 -22l-2 -17l2 -15l-2 -6l1 -34l3 -11v-17l-4 -7l-10 -1l-12 -1l-17 1l-31 -2h-2q-10 0 -10 7v1l2 19v33l2 17q0 3 -4 8v11l3 13l-1 15l2 6l-3 25l2 24 l-2 22l2 16l-1 46l-1 35l-2 19l3 33l-3 40l2 20l-2 28l-2 74l3 16l-2 27l1 25l-2 4v19z" />
            <glyph unicode="&#xef;" horiz-adv-x="149" d="M-37 770l2 11l-2 14q0 2 3 8q0 3 3 4l8 7l4 1l12 -1l16 -1l4 2h15l6 -1q1 0 5 2l9 -4l2 -2l4 -9v-22l-1 -10l3 -1v-1l-1 -1q0 -1 -1 -2v-2l-1 -5l2 -7l-1 -15l-7 -11l-31 -1l-10 1l-19 -1l-12 2l-3 1l-7 9l-1 12l3 9zM30 605l2 12l-2 21v3l5 12l-4 -2v2q0 6 8 8h9h19 q1 0 2 -1l8 1h19l4 2q14 -1 14 -6l1 -13l-2 -16l2 -14l-4 -18l2 -17l-2 -10l1 -14l1 -50v-77v-10l-3 -8l5 -28l-1 -85v-16l-1 -30q4 -5 4 -12l-1 -54v-55l2 -22l-2 -17l2 -15l-2 -6l1 -34l3 -11v-17l-4 -7l-10 -1l-12 -1l-17 1l-31 -2h-2q-10 0 -10 7v1l2 19v33l2 17 q0 3 -4 8v11l3 13l-1 15l2 6l-3 25l2 24l-2 22l2 16l-1 46l-1 35l-2 19l3 33l-3 40l2 20l-2 28l-2 74l3 16l-2 27l1 25l-2 4v19zM97 799l5 10l10 4l12 -2l1 2h3h12l14 1l2 2l13 -4q2 1 4 1l6 -2l-2 -2l6 -3l3 -22l-4 -30l3 -12l-2 -14l-11 -6l-13 1l-22 -2l-4 4l-13 -3 l-15 1l-5 6v13l1 3l-1 3l-1 10l1 18z" />
            <glyph unicode="&#xf1;" horiz-adv-x="463" d="M32 566l2 18l1 20l-3 6l1 10h1q2 2 2 3q0 3 -3 6v21l-1 5q3 1 3 2v1l7 5l7 -1l15 1l8 -1l4 1h5h16l3 1l18 -5l8 -8l8 -5l34 -30l36 -30l3 -12l3 -3l12 -1l15 -14l5 -7l7 -3l7 -5l1 -5l10 -3l7 -14l14 -6l44 -41l11 -9l1 15l3 10l1 25l-2 5l-1 52l-3 11l5 10v5l-6 13l2 11 l-3 3l4 14l-1 3l1 14l6 7l14 -2h10l9 3q1 -1 2.5 -2t2.5 -2h13l5 4l11 -2l1 -5l5 -1v-66l-2 -6l2 -19v-68l-2 -21l2 -23l-2 -71l3 -11l1 -24v-69l2 -85l-3 -12l5 -20l-2 -27l3 -18l-2 -16l2 -16v-33l3 -33l-3 -12l-8 -4v-1h-13q-2 2 -3 2q-1 -1 -1 -2h-18l-5 2l-2 -2h-23 l-2 2l-4 1q-2 0 -2 9l1 10l2 12l-5 10l5 16l-3 18l3 13l-3 15l3 11l-2 31v13l4 -1l-5 18l1 16l-2 86l-2 9l2 7l-2 43l-5 16l-5 13l-25 21l-2 5l-6 6l-1 2l-8 5l-7 6l-9 12l-26 21l-9 11l-13 9l-9 10l-14 12l-12 8l-12 12l-4 5l-7 5l-6 4l-19 15l-2 3l-21 14h-5l-8 8l-1 -68 l3 -7l-1 -17l-2 -27l3 -14q-2 -2 -2 -9v-4l2 -138l-1 -29l3 -20v-16l-2 -12l2 -56l-2 -11l2 -4v-17l1 -73l1 -21v-1q0 -18 -13 -18l-25 -1l-9 1l-4 -1l-5 1h-20l1 1q0 2 -5 4l-3 9v39l2 29l1 53q0 2 1 3t1 3q0 3 -1 4q-2 3 -1 3v9l3 3l-4 9v8l3 15l-1 13l-1 55l2 14l-4 7 l1 10l2 3l-4 15l3 26l-2 12l3 11l-3 9v29l1 7l-1 68v5v2q0 3 1 5l1 13q0 12 -4 13l2 6l-1 14l-1 2l1 17zM74 751l2 13l14 32l9 7l1 5l16 16l29 14l9 3l10 -1l11 2l12 -2l48 -15l15 -6l11 -3l8 -3l12 -2l6 -2l1 2q1 0 1 -1l4 -2l19 5l12 10l7 11l3 8l7 5l17 -6l24 -15l7 -14 l-1 -5l-11 -15v-7l-6 -6l-6 -11l-4 -1l1 -4l-11 -7l-12 -13l-31 -8l-13 -1l-32 5q-4 5 -9 7l-9 2l-10 7l-15 2l-9 5l-21 8l-12 -1l-7 2l-4 -6l-11 -4l-9 -9l-4 -7l-1 -2l-3 -3l-3 -10l-13 -7l-31 12l-12 5z" />
            <glyph unicode="&#xf2;" horiz-adv-x="433" d="M20 428l2 14l-1 2v7v15l2 8l-1 10l6 32l11 37q0 2 6 5l2 2v9l14 16v4l10 12l13 16l15 11l26 16l14 5l14 6l25 5l35 2h17l13 -2h3l1 1q1 0 2 -1l10 1l17 -4q3 0 3 -2l1 -1q0 -3 8 -3l9 1l11 -6l8 -2l5 -8l5 1l8 -5l6 -13l3 -2l10 2l6 -13l13 -6l2 -7l3 -3v-6l7 -8v-2 l14 -26l6 -19v-15l5 -8l-1 -22l5 -7v-6v-28l-3 -37h-4v-15l-18 -47l-7 -11v-2q0 -1 -2 -3q0 -1 -1 -2t-2 -2.5t-1 -3.5h-1l-26 -28l-33 -22l-10 -4l-28 -8l-10 -6l-17 2l-9 -6l-8 3l-14 -2h-11l-31 3l-19 5l-6 -1l-9 10l-7 -2h-4q-6 0 -12 9l-11 4l-11 9l-10 7l-5 9l-12 6 l-4 4l-7 17q-2 3 -4 3h-1l-8 20l-6 9l-8 15l-2 10l1 3l-5 10l-2 19zM72 826l4 9q1 1 4 1h2l8 -2q1 0 4 3l12 2l10 -1l42 2l11 -4l17 -23l4 -2q1 -1 3 -4l3 -8l21 -20l5 -9q3 -5 8 -7q2 -2 3 -2l5 -8v-1q0 -3 4 -5l9 -5l1 -12l-3 -3l-15 -3h-64l-16 13l-9 11l-6 10l-12 11 l-12 9l-9 11l-6 5l-8 13l-8 7zM99 458l2 -10l-1 -4l1 -18l3 -5l-1 -4l1 -11l9 -15l5 -13l2 -5l13 -7v-13l9 2l3 -6l11 -9l16 -8l21 -7l18 -1l4 1l13 -1l27 5l25 11l17 11l10 13l5 11l5 7q2 2 2 5l2 4l5 13l4 12l4 32l-2 35l-2 16l-4 12l-4 14q-1 5 -1.5 6.5t-2 2l-4.5 1.5 l-7 15l-22 21l-16 11l-11 3h-7l-6 3l-9 1l-16 2l-17 -1l-12 -2l-25 -9l-5 -2q-1 0 -2 -0.5t-2 -0.5l-15 -12l-12 -13l-5 -9l-11 -11l-3 -14l-4 -10l-5 -25l-1 -18zM181 158l1 11l4 10l-4 4l-1 11l8 9l11 2l18 -2h10l7 3q2 0 5 -3l15 3q2 -2 4 -2h2l4 -7q2 -2 2 -4t-4 -12 l1 -3l1 -35l-1 -13q0 -9 -14 -9h-12l-13 1l-14 -1l-19 -1q-8 0 -8 6l-1 29zM184 7v4l1 11l3 14l-3 3l2 12l1 9l-1 18l9 5l5 2l12 -2l11 2l5 -4l17 2l10 -1l8 -1l2 -4v-57l-4 -15l-15 -6h-16l-15 2l-27 -2z" />
            <glyph unicode="&#xf3;" horiz-adv-x="433" d="M20 428l2 14l-1 2v7v15l2 8l-1 10l6 32l11 37q0 2 6 5l2 2v9l14 16v4l10 12l13 16l15 11l26 16l14 5l14 6l25 5l35 2h17l13 -2h3l1 1q1 0 2 -1l10 1l17 -4q3 0 3 -2l1 -1q0 -3 8 -3l9 1l11 -6l8 -2l5 -8l5 1l8 -5l6 -13l3 -2l10 2l6 -13l13 -6l2 -7l3 -3v-6l7 -8v-2 l14 -26l6 -19v-15l5 -8l-1 -22l5 -7v-6v-28l-3 -37h-4v-15l-18 -47l-7 -11v-2q0 -1 -2 -3q0 -1 -1 -2t-2 -2.5t-1 -3.5h-1l-26 -28l-33 -22l-10 -4l-28 -8l-10 -6l-17 2l-9 -6l-8 3l-14 -2h-11l-31 3l-19 5l-6 -1l-9 10l-7 -2h-4q-6 0 -12 9l-11 4l-11 9l-10 7l-5 9l-12 6 l-4 4l-7 17q-2 3 -4 3h-1l-8 20l-6 9l-8 15l-2 10l1 3l-5 10l-2 19zM99 458l2 -10l-1 -4l1 -18l3 -5l-1 -4l1 -11l9 -15l5 -13l2 -5l13 -7v-13l9 2l3 -6l11 -9l16 -8l21 -7l18 -1l4 1l13 -1l27 5l25 11l17 11l10 13l5 11l5 7q2 2 2 5l2 4l5 13l4 12l4 32l-2 35l-2 16l-4 12 l-4 14q-1 5 -1.5 6.5t-2 2l-4.5 1.5l-7 15l-22 21l-16 11l-11 3h-7l-6 3l-9 1l-16 2l-17 -1l-12 -2l-25 -9l-5 -2q-1 0 -2 -0.5t-2 -0.5l-15 -12l-12 -13l-5 -9l-11 -11l-3 -14l-4 -10l-5 -25l-1 -18zM181 158l1 11l4 10l-4 4l-1 11l8 9l11 2l18 -2h10l7 3q2 0 5 -3l15 3 q2 -2 4 -2h2l4 -7q2 -2 2 -4t-4 -12l1 -3l1 -35l-1 -13q0 -9 -14 -9h-12l-13 1l-14 -1l-19 -1q-8 0 -8 6l-1 29zM184 7v4l1 11l3 14l-3 3l2 12l1 9l-1 18l9 5l5 2l12 -2l11 2l5 -4l17 2l10 -1l8 -1l2 -4v-57l-4 -15l-15 -6h-16l-15 2l-27 -2zM186 728q0 2 2 8l6 11l1 1 q2 0 5 4l8 11l2 4q2 5 3 5l7 4q2 10 4 10l7 2l5 15l8 5l6 13q7 16 20 16h3l25 -2q2 3 3 2l10 -1l17 2l13 -3l8 3l5 -6v-11l-2 1l-6 -6l-1 1l-8 -14l-8 -6l-12 -18l-11 -12l-8 -11l-20 -19v-2q-9 -11 -14 -13h-15l-16 2l-34 -2h-3q-4 -1 -7 1.5t-3 4.5z" />
            <glyph unicode="&#xf4;" horiz-adv-x="433" d="M20 428l2 14l-1 2v7v15l2 8l-1 10l6 32l11 37q0 2 6 5l2 2v9l14 16v4l10 12l13 16l15 11l26 16l14 5l14 6l25 5l35 2h17l13 -2h3l1 1q1 0 2 -1l10 1l17 -4q3 0 3 -2l1 -1q0 -3 8 -3l9 1l11 -6l8 -2l5 -8l5 1l8 -5l6 -13l3 -2l10 2l6 -13l13 -6l2 -7l3 -3v-6l7 -8v-2 l14 -26l6 -19v-15l5 -8l-1 -22l5 -7v-6v-28l-3 -37h-4v-15l-18 -47l-7 -11v-2q0 -1 -2 -3q0 -1 -1 -2t-2 -2.5t-1 -3.5h-1l-26 -28l-33 -22l-10 -4l-28 -8l-10 -6l-17 2l-9 -6l-8 3l-14 -2h-11l-31 3l-19 5l-6 -1l-9 10l-7 -2h-4q-6 0 -12 9l-11 4l-11 9l-10 7l-5 9l-12 6 l-4 4l-7 17q-2 3 -4 3h-1l-8 20l-6 9l-8 15l-2 10l1 3l-5 10l-2 19zM69 727l5 13l13 12l2 2q0 1 2 3l8 6l11 15l3 4l5 3l1 3l10 8l5 9l14 9l5 10l8 7l6 8q3 3 7 3h1h2l10 3l13 -2l19 1l32 -1q8 0 10 -2l7 -9q0 -1 3 -1q2 -7 10 -8l12 -17l9 -5l6 -10l8 -5l5 -10l11 -3l8 -12 l6 -3l7 -12l12 -10l-2 -10h-15l-9 -2h-15l-13 -1l-13 2l-16 -2l-14 12l-7 11l-10 6l-3 8l-22 21l-12 3q0 -1 -3 -1h-2l1 -1q0 -1 -4 -5t-5 -6l-6 -9l-15 -14l-1 -4l-3 -2h-6l-1 -6l-2 -2l-10 -8l-5 -3l-13 1l-12 -2l-13 3l-18 -3l-6 1h-14q-3 4 -7 4zM99 458l2 -10l-1 -4 l1 -18l3 -5l-1 -4l1 -11l9 -15l5 -13l2 -5l13 -7v-13l9 2l3 -6l11 -9l16 -8l21 -7l18 -1l4 1l13 -1l27 5l25 11l17 11l10 13l5 11l5 7q2 2 2 5l2 4l5 13l4 12l4 32l-2 35l-2 16l-4 12l-4 14q-1 5 -1.5 6.5t-2 2l-4.5 1.5l-7 15l-22 21l-16 11l-11 3h-7l-6 3l-9 1l-16 2 l-17 -1l-12 -2l-25 -9l-5 -2q-1 0 -2 -0.5t-2 -0.5l-15 -12l-12 -13l-5 -9l-11 -11l-3 -14l-4 -10l-5 -25l-1 -18zM181 158l1 11l4 10l-4 4l-1 11l8 9l11 2l18 -2h10l7 3q2 0 5 -3l15 3q2 -2 4 -2h2l4 -7q2 -2 2 -4t-4 -12l1 -3l1 -35l-1 -13q0 -9 -14 -9h-12l-13 1l-14 -1 l-19 -1q-8 0 -8 6l-1 29zM184 7v4l1 11l3 14l-3 3l2 12l1 9l-1 18l9 5l5 2l12 -2l11 2l5 -4l17 2l10 -1l8 -1l2 -4v-57l-4 -15l-15 -6h-16l-15 2l-27 -2z" />
            <glyph unicode="&#xf5;" horiz-adv-x="433" d="M20 428l2 14l-1 2v7v15l2 8l-1 10l6 32l11 37q0 2 6 5l2 2v9l14 16v4l10 12l13 16l15 11l26 16l14 5l14 6l25 5l35 2h17l13 -2h3l1 1q1 0 2 -1l10 1l17 -4q3 0 3 -2l1 -1q0 -3 8 -3l9 1l11 -6l8 -2l5 -8l5 1l8 -5l6 -13l3 -2l10 2l6 -13l13 -6l2 -7l3 -3v-6l7 -8v-2 l14 -26l6 -19v-15l5 -8l-1 -22l5 -7v-6v-28l-3 -37h-4v-15l-18 -47l-7 -11v-2q0 -1 -2 -3q0 -1 -1 -2t-2 -2.5t-1 -3.5h-1l-26 -28l-33 -22l-10 -4l-28 -8l-10 -6l-17 2l-9 -6l-8 3l-14 -2h-11l-31 3l-19 5l-6 -1l-9 10l-7 -2h-4q-6 0 -12 9l-11 4l-11 9l-10 7l-5 9l-12 6 l-4 4l-7 17q-2 3 -4 3h-1l-8 20l-6 9l-8 15l-2 10l1 3l-5 10l-2 19zM59 751l2 13l14 32l9 7l1 5l16 16l29 14l9 3l10 -1l11 2l12 -2l48 -15l15 -6l11 -3l8 -3l12 -2l6 -2l1 2q1 0 1 -1l4 -2l19 5l12 10l7 11l3 8l7 5l17 -6l24 -15l7 -14l-1 -5l-11 -15v-7l-6 -6l-6 -11 l-4 -1l1 -4l-11 -7l-12 -13l-31 -8l-13 -1l-32 5q-4 5 -9 7l-9 2l-10 7l-15 2l-9 5l-21 8l-12 -1l-7 2l-4 -6l-11 -4l-9 -9l-4 -7l-2 -2q-1 -2 -2 -3l-3 -10l-13 -7l-31 12l-12 5zM99 458l2 -10l-1 -4l1 -18l3 -5l-1 -4l1 -11l9 -15l5 -13l2 -5l13 -7v-13l9 2l3 -6l11 -9 l16 -8l21 -7l18 -1l4 1l13 -1l27 5l25 11l17 11l10 13l5 11l5 7q2 2 2 5l2 4l5 13l4 12l4 32l-2 35l-2 16l-4 12l-4 14q-1 5 -1.5 6.5t-2 2l-4.5 1.5l-7 15l-22 21l-16 11l-11 3h-7l-6 3l-9 1l-16 2l-17 -1l-12 -2l-25 -9l-5 -2q-1 0 -2 -0.5t-2 -0.5l-15 -12l-12 -13l-5 -9 l-11 -11l-3 -14l-4 -10l-5 -25l-1 -18zM181 158l1 11l4 10l-4 4l-1 11l8 9l11 2l18 -2h10l7 3q2 0 5 -3l15 3q2 -2 4 -2h2l4 -7q2 -2 2 -4t-4 -12l1 -3l1 -35l-1 -13q0 -9 -14 -9h-12l-13 1l-14 -1l-19 -1q-8 0 -8 6l-1 29zM184 7v4l1 11l3 14l-3 3l2 12l1 9l-1 18l9 5l5 2 l12 -2l11 2l5 -4l17 2l10 -1l8 -1l2 -4v-57l-4 -15l-15 -6h-16l-15 2l-27 -2z" />
            <glyph unicode="&#xf6;" horiz-adv-x="433" d="M20 428l2 14l-1 2v7v15l2 8l-1 10l6 32l11 37q0 2 6 5l2 2v9l14 16v4l10 12l13 16l15 11l26 16l14 5l14 6l25 5l35 2h17l13 -2h3l1 1q1 0 2 -1l10 1l17 -4q3 0 3 -2l1 -1q0 -3 8 -3l9 1l11 -6l8 -2l5 -8l5 1l8 -5l6 -13l3 -2l10 2l6 -13l13 -6l2 -7l3 -3v-6l7 -8v-2 l14 -26l6 -19v-15l5 -8l-1 -22l5 -7v-6v-28l-3 -37h-4v-15l-18 -47l-7 -11v-2q0 -1 -2 -3q0 -1 -1 -2t-2 -2.5t-1 -3.5h-1l-26 -28l-33 -22l-10 -4l-28 -8l-10 -6l-17 2l-9 -6l-8 3l-14 -2h-11l-31 3l-19 5l-6 -1l-9 10l-7 -2h-4q-6 0 -12 9l-11 4l-11 9l-10 7l-5 9l-12 6 l-4 4l-7 17q-2 3 -4 3h-1l-8 20l-6 9l-8 15l-2 10l1 3l-5 10l-2 19zM99 458l2 -10l-1 -4l1 -18l3 -5l-1 -4l1 -11l9 -15l5 -13l2 -5l13 -7v-13l9 2l3 -6l11 -9l16 -8l21 -7l18 -1l4 1l13 -1l27 5l25 11l17 11l10 13l5 11l5 7q2 2 2 5l2 4l5 13l4 12l4 32l-2 35l-2 16l-4 12 l-4 14q-1 5 -1.5 6.5t-2 2l-4.5 1.5l-7 15l-22 21l-16 11l-11 3h-7l-6 3l-9 1l-16 2l-17 -1l-12 -2l-25 -9l-5 -2q-1 0 -2 -0.5t-2 -0.5l-15 -12l-12 -13l-5 -9l-11 -11l-3 -14l-4 -10l-5 -25l-1 -18zM105 770l2 11l-2 14q0 2 3 8q0 3 3 4l8 7l4 1l12 -1l16 -1l4 2h15l6 -1 q1 0 5 2l9 -4l2 -2l4 -9v-22l-1 -10l3 -1v-1l-1 -1q0 -1 -1 -2v-2l-1 -5l2 -7l-1 -15l-7 -11l-31 -1l-10 1l-19 -1l-12 2l-3 1l-7 9l-1 12l3 9zM181 158l1 11l4 10l-4 4l-1 11l8 9l11 2l18 -2h10l7 3q2 0 5 -3l15 3q2 -2 4 -2h2l4 -7q2 -2 2 -4t-4 -12l1 -3l1 -35l-1 -13 q0 -9 -14 -9h-12l-13 1l-14 -1l-19 -1q-8 0 -8 6l-1 29zM184 7v4l1 11l3 14l-3 3l2 12l1 9l-1 18l9 5l5 2l12 -2l11 2l5 -4l17 2l10 -1l8 -1l2 -4v-57l-4 -15l-15 -6h-16l-15 2l-27 -2zM239 799l5 10l10 4l12 -2l1 2h3h12l14 1l2 2l13 -4q2 1 4 1l6 -2l-2 -2l6 -3l3 -22 l-4 -30l3 -12l-2 -14l-11 -6l-13 1l-22 -2l-4 4l-13 -3l-15 1l-5 6v13l1 3l-1 3l-1 10l1 18z" />
            <glyph unicode="&#xf7;" horiz-adv-x="485" d="M63 258v75h360v-75h-360zM188 110q0 23 16 39t40 16t39 -15.5t15 -38.5q0 -25 -16 -40t-38 -15q-23 0 -39.5 16t-16.5 38zM188 480q0 24 16 40t40 16t39 -15.5t15 -39.5q0 -25 -16 -40t-38 -15q-23 0 -39.5 16t-16.5 38z" />
            <glyph unicode="&#xf8;" horiz-adv-x="487" d="M19 304l1 29l2 45l4 31l8 51l5 11l1 8l3 15l14 38l8 13l-1 5l6 8l6 7l7 14l17 22q7 1 8 7l7 7l22 18l12 9l32 15l22 7l15 3l34 2l23 -4l11 1l7 -6l11 2l8 -7l15 -4l25 -18h14l3 9l13 24l8 11l13 -4l2 -3l11 -1l11 -10l8 -2q2 -5 4 -5l4 -1l7 -6l3 -7l-9 -20q-2 -2 -6 -4 l-1 -12h-3l-3 -6l-6 -12l-3 -1l-2 -8l-2 -4v-2v-2l3 -6l16 -35v-5l6 -11l2 -15l5 -11v-15l6 -11l1 -27l3 -36l3 -12l-1 -2l2 -12l-1 -19l4 -8l-3 -14l1 -22l-2 -6l3 -17l-3 -14l-2 -35l-5 -32l-5 -15v-14l-2 -2l-5 -18q-1 -8 -5 -12q-1 -1 -1 -2l-6 -15l-25 -45l-11 -9 l-11 -15l-15 -15l-13 -9l-19 -8l-7 -7l-30 -9l-28 -6l-23 -1l-5 -3l-41 2l-2 2l-12 5l-14 3l-9 8l-11 -2l-12 10h-6l-8 9l-10 -3v-4l-7 -4l-1 -10l-3 -5h-2v-1q0 -2 -2 -2h-1l-3 -11q-3 -2 -7 -4q-1 -10 -5 -10h-10l-15 9l-16 11l-17 13q-3 1 -3 5t1 6l6 16l3 3h3l15 22 l5 11l8 11v5l1 7q0 1 -1 2t-1 3l-12 26l-6 15l-7 14l-1 15l-7 17v18l-7 16l1 13v2v1q-1 6 -4 9l1 12l1 10l-5 9v7v3v2zM102 335l1 -43l4 -32l2 -3l-2 -3l2 -11l6 -29q3 -14 6 -12q5 0 10 9l5 10l1 3l13 19v3l1 1l1 1l5 12l9 10l4 14l7 10l12 19l9 21l19 32l5 6l6 13l8 13 l10 24l9 11l26 49l24 48l14 19l1 3q0 1 2 3l-3 13h-4q-1 5 -4 5h-3l-1.5 4.5t-1.5 0.5h-3l-14 6h-3l-11 6l-21 3l-19 -3l-4 1l-4 -1l-28 -11l-9 -5l-9 -4l-8 -10l-10 -8l-14 -20l-9 -10l-12 -26l-2 -10q-1 0 -1 -2v-1l-11 -36l-4 -25l-3 -12l-3 -47l1 -13zM163 108l14 -14 l14 -8h3l12 -8h11l14 -3l18 -3l17 3l14 3l37 18l10 12l11 8l2 5l9 11l3 8l8 10l3 15l-1 4l8 13l6 31l5 15v18l4 16l1 40h2v50l-3 20v31l-2 17l-5 17l1 6l-3 15l-5 16l-2 5q-2 1 -5 1q-6 0 -6 -3q0 -1 0.5 -1t0.5 -1l-17 -38l-3 -4l-6 -13l-3 -3l-13 -27l-8 -11l-3 -9l-6 -8 l-7 -11l-2 -1l-5 -14l-2 -3l-2 -4l-7 -14l-2 -4l-7 -12l-5 -8q-1 0 -1 -2v-3l-1 1l-9 -15l-6 -14l-6 -9l-9 -18l-8 -12l-1 -4l-15 -27l-5 -4l-5 -10l-1 -2v-2l-2 -6l-7 -11l-6 -7l-7 -16l-5 -5l-2 -8l-1 -2z" />
            <glyph unicode="&#xf9;" horiz-adv-x="451" d="M30 488l3 8l-2 6l1 8l3 7q1 2 1 7v2l-4 6l-1 43l-1 10l3 6v3q0 3 -3 6l4 23l-2 1v20l2 14l21 4h12l32 -1q4 0 9 -3.5t5 -6.5v-12l-1 -52q2 -6 2 -7v-3l-2 -14l2 -13l-2 -15l1 -32l-3 -18l1 -22l-1 -15l3 -14l-3 -13l1 -16l-1 -11l-1 -17l1 -21l-1 -21l1 -16l-1 -16l1 -15 l3 -18v-47l2 -17v-15l6 -27l8 -31l6 -12l5 -6l10 -15l13 -7l2 -4l5 -1l6 -4l16 -6l17 -2q5 0 8 -3h4h12l14 4l17 2l17 8l13 9l8 5q1 2 3 4l1 1q0 2 1 2l3 8l8 8l-1 11l8 10l5 18l3 18l1 12l2 15l-1 15v4q0 5 4 10l-2 6v13l3 9l-2 84v3v5l1 6l-1 52l-2 5v13l3 6l-1 6l-3 12 v51v44l-3 16l2 16l-1 15l-2 11l2 21l-4 16l2 4l7 9h7l21 2l33 -1h7q6 -3 8 -5l1 -12v-18l2 -53l-3 -23l2 -10l-2 -17l3 -28l-1 -5v-11l-1 -1l2 -2l-1 -6l2 -66l-1 -27l-1 -15l2 -16l-3 -7l5 -13l-1 -10l-3 -54l1 -6l1 -5l2 -3q2 -2 2 -3t-0.5 -1t-0.5 -1l-5 -8l3 -11l-1 -4 l-2 -1l-1 -32l-5 -41l-3 -14l-6 -14l3 -3l-2 -2l-14 -32l-12 -17l-27 -31l-15 -7l-5 -5q-6 0 -7 4l-11 -10l-18 -8l-16 -3l-1 -2l-17 -3l-23 -3l-29 2l-12 1l-11 4l-14 -1q-4 4 -7 4t-5 -2l-16 6l-6 7l-4 -4l-12 8l-9 7l-9 5l-4 8l-11 4l-5 7l-3 13l-3 -1q-6 0 -9 8l-14 32 l-10 32l-3 17v16l-4 16l2 11l-1 12l-4 8v37l-1 18l2 17l-1 12v26v44v37l2 12l-3 10l2 23l-3 3zM86 826l4 9q1 1 4 1h2l8 -2q1 0 4 3l12 2l10 -1l42 2l11 -4l17 -23l4 -2q1 -1 3 -4l3 -8l21 -20l5 -9q3 -5 8 -7q2 -2 3 -2l5 -8v-1q0 -3 4 -5l9 -5l1 -12l-3 -3l-15 -3h-64 l-16 13l-9 11l-6 10l-12 11l-12 9l-9 11l-6 5l-8 13l-8 7z" />
            <glyph unicode="&#xfa;" horiz-adv-x="451" d="M30 488l3 8l-2 6l1 8l3 7q1 2 1 7v2l-4 6l-1 43l-1 10l3 6v3q0 3 -3 6l4 23l-2 1v20l2 14l21 4h12l32 -1q4 0 9 -3.5t5 -6.5v-12l-1 -52q2 -6 2 -7v-3l-2 -14l2 -13l-2 -15l1 -32l-3 -18l1 -22l-1 -15l3 -14l-3 -13l1 -16l-1 -11l-1 -17l1 -21l-1 -21l1 -16l-1 -16l1 -15 l3 -18v-47l2 -17v-15l6 -27l8 -31l6 -12l5 -6l10 -15l13 -7l2 -4l5 -1l6 -4l16 -6l17 -2q5 0 8 -3h4h12l14 4l17 2l17 8l13 9l8 5q1 2 3 4l1 1q0 2 1 2l3 8l8 8l-1 11l8 10l5 18l3 18l1 12l2 15l-1 15v4q0 5 4 10l-2 6v13l3 9l-2 84v3v5l1 6l-1 52l-2 5v13l3 6l-1 6l-3 12 v51v44l-3 16l2 16l-1 15l-2 11l2 21l-4 16l2 4l7 9h7l21 2l33 -1h7q6 -3 8 -5l1 -12v-18l2 -53l-3 -23l2 -10l-2 -17l3 -28l-1 -5v-11l-1 -1l2 -2l-1 -6l2 -66l-1 -27l-1 -15l2 -16l-3 -7l5 -13l-1 -10l-3 -54l1 -6l1 -5l2 -3q2 -2 2 -3t-0.5 -1t-0.5 -1l-5 -8l3 -11l-1 -4 l-2 -1l-1 -32l-5 -41l-3 -14l-6 -14l3 -3l-2 -2l-14 -32l-12 -17l-27 -31l-15 -7l-5 -5q-6 0 -7 4l-11 -10l-18 -8l-16 -3l-1 -2l-17 -3l-23 -3l-29 2l-12 1l-11 4l-14 -1q-4 4 -7 4t-5 -2l-16 6l-6 7l-4 -4l-12 8l-9 7l-9 5l-4 8l-11 4l-5 7l-3 13l-3 -1q-6 0 -9 8l-14 32 l-10 32l-3 17v16l-4 16l2 11l-1 12l-4 8v37l-1 18l2 17l-1 12v26v44v37l2 12l-3 10l2 23l-3 3zM179 728q0 2 2 8l6 11l1 1q2 0 5 4l8 11l2 4q2 5 3 5l7 4q2 10 4 10l7 2l5 15l8 5l6 13q7 16 20 16h3l25 -2q2 3 3 2l10 -1l17 2l13 -3l8 3l5 -6v-11l-2 1l-6 -6l-1 1l-8 -14 l-8 -6l-12 -18l-11 -12l-8 -11l-20 -19v-2q-9 -11 -14 -13h-15l-16 2l-34 -2h-3q-4 -1 -7 1.5t-3 4.5z" />
            <glyph unicode="&#xfb;" horiz-adv-x="451" d="M30 488l3 8l-2 6l1 8l3 7q1 2 1 7v2l-4 6l-1 43l-1 10l3 6v3q0 3 -3 6l4 23l-2 1v20l2 14l21 4h12l32 -1q4 0 9 -3.5t5 -6.5v-12l-1 -52q2 -6 2 -7v-3l-2 -14l2 -13l-2 -15l1 -32l-3 -18l1 -22l-1 -15l3 -14l-3 -13l1 -16l-1 -11l-1 -17l1 -21l-1 -21l1 -16l-1 -16l1 -15 l3 -18v-47l2 -17v-15l6 -27l8 -31l6 -12l5 -6l10 -15l13 -7l2 -4l5 -1l6 -4l16 -6l17 -2q5 0 8 -3h4h12l14 4l17 2l17 8l13 9l8 5q1 2 3 4l1 1q0 2 1 2l3 8l8 8l-1 11l8 10l5 18l3 18l1 12l2 15l-1 15v4q0 5 4 10l-2 6v13l3 9l-2 84v3v5l1 6l-1 52l-2 5v13l3 6l-1 6l-3 12 v51v44l-3 16l2 16l-1 15l-2 11l2 21l-4 16l2 4l7 9h7l21 2l33 -1h7q6 -3 8 -5l1 -12v-18l2 -53l-3 -23l2 -10l-2 -17l3 -28l-1 -5v-11l-1 -1l2 -2l-1 -6l2 -66l-1 -27l-1 -15l2 -16l-3 -7l5 -13l-1 -10l-3 -54l1 -6l1 -5l2 -3q2 -2 2 -3t-0.5 -1t-0.5 -1l-5 -8l3 -11l-1 -4 l-2 -1l-1 -32l-5 -41l-3 -14l-6 -14l3 -3l-2 -2l-14 -32l-12 -17l-27 -31l-15 -7l-5 -5q-6 0 -7 4l-11 -10l-18 -8l-16 -3l-1 -2l-17 -3l-23 -3l-29 2l-12 1l-11 4l-14 -1q-4 4 -7 4t-5 -2l-16 6l-6 7l-4 -4l-12 8l-9 7l-9 5l-4 8l-11 4l-5 7l-3 13l-3 -1q-6 0 -9 8l-14 32 l-10 32l-3 17v16l-4 16l2 11l-1 12l-4 8v37l-1 18l2 17l-1 12v26v44v37l2 12l-3 10l2 23l-3 3zM78 727l5 13l13 12l2 2q0 1 2 3l8 6l11 15l3 4l5 3l1 3l10 8l5 9l14 9l5 10l8 7l6 8q3 3 7 3h1h2l10 3l13 -2l19 1l32 -1q8 0 10 -2l7 -9q0 -1 3 -1q2 -7 10 -8l12 -17l9 -5 l6 -10l8 -5l5 -10l11 -3l8 -12l6 -3l7 -12l12 -10l-2 -10h-15l-9 -2h-15l-13 -1l-13 2l-16 -2l-14 12l-7 11l-10 6l-3 8l-22 21l-12 3q0 -1 -3 -1h-2l1 -1q0 -1 -4 -5t-5 -6l-6 -9l-15 -14l-1 -4l-3 -2h-6l-1 -6l-2 -2l-10 -8l-5 -3l-13 1l-12 -2l-13 3l-18 -3l-6 1h-14 q-3 4 -7 4z" />
            <glyph unicode="&#xfc;" horiz-adv-x="451" d="M30 488l3 8l-2 6l1 8l3 7q1 2 1 7v2l-4 6l-1 43l-1 10l3 6v3q0 3 -3 6l4 23l-2 1v20l2 14l21 4h12l32 -1q4 0 9 -3.5t5 -6.5v-12l-1 -52q2 -6 2 -7v-3l-2 -14l2 -13l-2 -15l1 -32l-3 -18l1 -22l-1 -15l3 -14l-3 -13l1 -16l-1 -11l-1 -17l1 -21l-1 -21l1 -16l-1 -16l1 -15 l3 -18v-47l2 -17v-15l6 -27l8 -31l6 -12l5 -6l10 -15l13 -7l2 -4l5 -1l6 -4l16 -6l17 -2q5 0 8 -3h4h12l14 4l17 2l17 8l13 9l8 5q1 2 3 4l1 1q0 2 1 2l3 8l8 8l-1 11l8 10l5 18l3 18l1 12l2 15l-1 15v4q0 5 4 10l-2 6v13l3 9l-2 84v3v5l1 6l-1 52l-2 5v13l3 6l-1 6l-3 12 v51v44l-3 16l2 16l-1 15l-2 11l2 21l-4 16l2 4l7 9h7l21 2l33 -1h7q6 -3 8 -5l1 -12v-18l2 -53l-3 -23l2 -10l-2 -17l3 -28l-1 -5v-11l-1 -1l2 -2l-1 -6l2 -66l-1 -27l-1 -15l2 -16l-3 -7l5 -13l-1 -10l-3 -54l1 -6l1 -5l2 -3q2 -2 2 -3t-0.5 -1t-0.5 -1l-5 -8l3 -11l-1 -4 l-2 -1l-1 -32l-5 -41l-3 -14l-6 -14l3 -3l-2 -2l-14 -32l-12 -17l-27 -31l-15 -7l-5 -5q-6 0 -7 4l-11 -10l-18 -8l-16 -3l-1 -2l-17 -3l-23 -3l-29 2l-12 1l-11 4l-14 -1q-4 4 -7 4t-5 -2l-16 6l-6 7l-4 -4l-12 8l-9 7l-9 5l-4 8l-11 4l-5 7l-3 13l-3 -1q-6 0 -9 8l-14 32 l-10 32l-3 17v16l-4 16l2 11l-1 12l-4 8v37l-1 18l2 17l-1 12v26v44v37l2 12l-3 10l2 23l-3 3zM114 770l2 11l-2 14q0 2 3 8q0 3 3 4l8 7l4 1l12 -1l16 -1l4 2h15l6 -1q1 0 5 2l9 -4l2 -2l4 -9v-22l-1 -10l3 -1l-1 -1v-1v-2l-1 -2l-1 -5l2 -7l-1 -15l-7 -11l-31 -1l-10 1 l-19 -1l-12 2l-3 1l-7 9l-1 12l3 9zM248 799l5 10l10 4l12 -2l1 2h3h12l14 1l2 2l13 -4q2 1 4 1l6 -2l-2 -2l6 -3l3 -22l-4 -30l3 -12l-2 -14l-11 -6l-13 1l-22 -2l-4 4l-13 -3l-15 1l-5 6v13l1 3l-1 3l-1 10l1 18z" />
            <glyph unicode="&#xfd;" horiz-adv-x="441" d="M197 728q0 2 2 8l6 11l1 1q2 0 5 4l8 11l2 4q2 5 3 5l7 4q2 10 4 10l7 2l5 15l8 5l6 13q7 16 20 16h3l25 -2q2 3 3 2l10 -1l17 2l13 -3l8 3l5 -6v-11l-2 1l-6 -6l-1 1l-8 -14l-8 -6l-12 -18l-11 -12l-8 -11l-20 -19v-2q-9 -11 -14 -13h-15l-16 2l-34 -2h-3q-4 -1 -7 1.5 t-3 4.5zM10 650l8 9h19h18l8 3l10 -4l13 2l12 -3l12 -30l2 -9l5 -2l1 -7l17 -40l17 -40l44 -90l6 -19l7 -12h3l7 -17l9 -2l8 5l6 17l3 1l4 13l37 86l6 17l3 1l8 21l7 13l5 3l-1 16l5 9l3 2v3q1 2 1 4l1 11l14 30q0 1 0.5 1t0.5 1q1 6 3 6l13 11l14 1l15 -2l12 1l15 1l4 1 l4 -2l11 -5l1 -9v-2q0 -3 -2 -7l-5 -7l-19 -48l-6 -7l-7 -19v-10q-8 -5 -8 -16l-16 -30l-4 -17l-11 -15l-26 -60l-13 -24l-39 -88l-9 -30l2 -13l-5 -6l4 -10v-2q0 -3 -3 -4l3 -41l-1 -12v-20l2 -14l-3 -10l3 -25v-1l2 -3h-2l-3 -17l5 -21l-3 -19l2 -20l2 -9l-7 -16l-5 -3 l-18 -2h-12l-36 2l-4 3l-3 12l-1 36l1 23l-2 15v14l2 20l-1 7l2 15v5q0 2 -1 2l-1 3v29v66l-3 32l-25 55l-7 12l-8 18l-6 5l-4 14l-21 38l-2 10l-11 20v2l-8 13l-7 19l-7 13l-2 2l-1 1q0 2 2 4l-3 6l-17 34l-7 16q-1 2 -5 14q0 2 -2 4l-9 11l-11 31l-4 7l-2 2q-2 4 -2 7z " />
            <glyph unicode="&#xff;" horiz-adv-x="441" d="M10 650l8 9h19h18l8 3l10 -4l13 2l12 -3l12 -30l2 -9l5 -2l1 -7l17 -40l17 -40l44 -90l6 -19l7 -12h3l7 -17l9 -2l8 5l6 17l3 1l4 13l37 86l6 17l3 1l8 21l7 13l5 3l-1 16l5 9l3 2v3q1 2 1 4l1 11l14 30q0 1 0.5 1t0.5 1q1 6 3 6l13 11l14 1l15 -2l12 1l15 1l4 1l4 -2 l11 -5l1 -9v-2q0 -3 -2 -7l-5 -7l-19 -48l-6 -7l-7 -19v-10q-8 -5 -8 -16l-16 -30l-4 -17l-11 -15l-26 -60l-13 -24l-39 -88l-9 -30l2 -13l-5 -6l4 -10v-2q0 -3 -3 -4l3 -41l-1 -12v-20l2 -14l-3 -10l3 -25v-1l2 -3h-2l-3 -17l5 -21l-3 -19l2 -20l2 -9l-7 -16l-5 -3l-18 -2 h-12l-36 2l-4 3l-3 12l-1 36l1 23l-2 15v14l2 20l-1 7l2 15v5q0 2 -1 2l-1 3v29v66l-3 32l-25 55l-7 12l-8 18l-6 5l-4 14l-21 38l-2 10l-11 20v2l-8 13l-7 19l-7 13l-2 2l-1 1q0 2 2 4l-3 6l-17 34l-7 16q-1 2 -5 14q0 2 -2 4l-9 11l-11 31l-4 7l-2 2q-2 4 -2 7zM112 770 l2 11l-2 14q0 2 3 8q0 3 3 4l8 7l4 1l12 -1l16 -1l4 2h15l6 -1q1 0 5 2l9 -4l2 -2l4 -9v-22l-1 -10l3 -1l-1 -1v-1v-2l-1 -2l-1 -5l2 -7l-1 -15l-7 -11l-31 -1l-10 1l-19 -1l-12 2l-3 1l-7 9l-1 12l3 9zM246 799l5 10l10 4l12 -2l1 2h3h12l14 1l2 2l13 -4q2 1 4 1q1 0 3 -1 t3 -1l-2 -2l6 -3l3 -22l-4 -30l3 -12l-2 -14l-11 -6l-13 1l-22 -2l-4 4l-13 -3l-15 1l-5 6v13l1 3l-1 3l-1 10l1 18z" />
            <glyph unicode="&#x152;" horiz-adv-x="653" d="M20 310l1 12l-1 16l2 16v36q1 4 3 9v3l6 51l7 32l15 44l21 39l6 9l8 13l10 8q0 2 2 4l5 7q2 5 12 7l2 7l12 5l7 6l15 8l9 6l14 4l10 1l6 4l17 2l9 1v1l19 3l2 -2l4 2l36 -4l21 -3l43 -18l3 -5l7 -1l11 -11l9 -5l1 -5l9 2l-1 13v16l1 11l8 5l16 1h61l13 1l9 -2l17 3l23 -1 h15l9 -4l3 -1l6 -9l-4 -11q2 -1 2 -3l-2 -12l1 -15l-2 -10l-11 -4l-15 2h-22l-16 -1l-25 1l-4 -2q-1 0 -3 1l-8 -11l-1 -24l3 -4l14 -3l19 4l27 -4l13 3h38l17 1l7 1h1q2 0 7 -3l10 3l16 -1q1 0 2 1l6 -9q-3 -5 -3 -7t3 -6l-3 -13l3 -14l-3 -18l-4 -2l-10 -2l-16 -2h-29 l-8 -1l-9 3l-7 -2h-20h-25l-9 -2l-29 1l-7 -5v-80l1 -61l-1 -17l1 -32l-1 -27l1 -23h-2l2 -15l-1 -8l2 -19v-44l1 -10l-2 -17l1 -14l3 -29l1 -5l3 -2l14 -2l13 1l8 -1l4 1l23 1h21l5 -1q1 1 2 1q2 1 3 1l11 -3h12l6 2l6 -1h23l4 -3l4 -10l-2 -12q4 -4 4 -6q0 -3 -4 -4l1 -14 l1 -17l-5 -8l-13 1l-16 1l-19 -2l-15 1l-9 -2l-15 1l-9 -2l-16 2l-16 -2l-10 2l-25 -1l-1 1l-10 -1l-25 1h-21q-12 0 -12 7l-2 11l-1 5l2 9l-2 5v20l-6 3l-8 -12l-5 -3l-3 -5l-8 -6l-2 -1l-13 -11h-4l-12 -7h-5l-11 -5l-26 -7h-11l-11 -3l-7 1l-7 -2l-30 2l-30 3l-21 7 l-10 5l-12 5l-17 12l-14 7l-12 12l-12 13l-21 31l-13 27l-5 15l-5 12l-4 17l-4 10l-2 25l-7 31l-5 41v16l1 5zM100 312l2 -15v-29l3 -10l-1 -10v-3q0 -4 3 -6v-5v-16l5 -19l5 -10l4 -23l4 -6l6 -12l10 -12q0 -8 2 -10l6 -4l1 -5l7 -7l6 -5q3 0 4 -2q0 -3 5 -5l6 -3l12 -8 l17 -6l15 -1l8 -3h17l13 1l27 8l11 2l1 3l9 3l1 3l16 9l10 11l11 16l8 14l11 27l9 39l-1 4l3 19v14l4 16v29l1 23l-2 11l2 33l-3 17l2 18l-5 13l1 17l-2 19l-4 13l-4 16v12l-4 15l-2 1l-2 7l-2 9l-16 27l-24 23l-11 6l-2 3l-15 4l-5 3l-19 2l-1 2h-22l-29 -6l-13 -6h-6 l-9 -7l-2 -3l-8 -3q-3 -2 -6 -7q0 -2 -3 -5l-5 -2l-10 -15l-22 -36l-11 -26l-4 -23q-1 -7 -4 -8l-2 -14l1 -6l-3 -10l-1 -15l-3 -14v-16v-27z" />
            <glyph unicode="&#x153;" horiz-adv-x="653" d="M20 310l1 12l-1 16l2 16v36q1 4 3 9v3l6 51l7 32l15 44l21 39l6 9l8 13l10 8q0 2 2 4l5 7q2 5 12 7l2 7l12 5l7 6l15 8l9 6l14 4l10 1l6 4l17 2l9 1v1l19 3l2 -2l4 2l36 -4l21 -3l43 -18l3 -5l7 -1l11 -11l9 -5l1 -5l9 2l-1 13v16l1 11l8 5l16 1h61l13 1l9 -2l17 3l23 -1 h15l9 -4l3 -1l6 -9l-4 -11q2 -1 2 -3l-2 -12l1 -15l-2 -10l-11 -4l-15 2h-22l-16 -1l-25 1l-4 -2q-1 0 -3 1l-8 -11l-1 -24l3 -4l14 -3l19 4l27 -4l13 3h38l17 1l7 1h1q2 0 7 -3l10 3l16 -1q1 0 2 1l6 -9q-3 -5 -3 -7t3 -6l-3 -13l3 -14l-3 -18l-4 -2l-10 -2l-16 -2h-29 l-8 -1l-9 3l-7 -2h-20h-25l-9 -2l-29 1l-7 -5v-80l1 -61l-1 -17l1 -32l-1 -27l1 -23h-2l2 -15l-1 -8l2 -19v-44l1 -10l-2 -17l1 -14l3 -29l1 -5l3 -2l14 -2l13 1l8 -1l4 1l23 1h21l5 -1q1 1 2 1q2 1 3 1l11 -3h12l6 2l6 -1h23l4 -3l4 -10l-2 -12q4 -4 4 -6q0 -3 -4 -4l1 -14 l1 -17l-5 -8l-13 1l-16 1l-19 -2l-15 1l-9 -2l-15 1l-9 -2l-16 2l-16 -2l-10 2l-25 -1l-1 1l-10 -1l-25 1h-21q-12 0 -12 7l-2 11l-1 5l2 9l-2 5v20l-6 3l-8 -12l-5 -3l-3 -5l-8 -6l-2 -1l-13 -11h-4l-12 -7h-5l-11 -5l-26 -7h-11l-11 -3l-7 1l-7 -2l-30 2l-30 3l-21 7 l-10 5l-12 5l-17 12l-14 7l-12 12l-12 13l-21 31l-13 27l-5 15l-5 12l-4 17l-4 10l-2 25l-7 31l-5 41v16l1 5zM100 312l2 -15v-29l3 -10l-1 -10v-3q0 -4 3 -6v-5v-16l5 -19l5 -10l4 -23l4 -6l6 -12l10 -12q0 -8 2 -10l6 -4l1 -5l7 -7l6 -5q3 0 4 -2q0 -3 5 -5l6 -3l12 -8 l17 -6l15 -1l8 -3h17l13 1l27 8l11 2l1 3l9 3l1 3l16 9l10 11l11 16l8 14l11 27l9 39l-1 4l3 19v14l4 16v29l1 23l-2 11l2 33l-3 17l2 18l-5 13l1 17l-2 19l-4 13l-4 16v12l-4 15l-2 1l-2 7l-2 9l-16 27l-24 23l-11 6l-2 3l-15 4l-5 3l-19 2l-1 2h-22l-29 -6l-13 -6h-6 l-9 -7l-2 -3l-8 -3q-3 -2 -6 -7q0 -2 -3 -5l-5 -2l-10 -15l-22 -36l-11 -26l-4 -23q-1 -7 -4 -8l-2 -14l1 -6l-3 -10l-1 -15l-3 -14v-16v-27z" />
            <glyph unicode="&#x178;" horiz-adv-x="441" d="M10 650l8 9h19h18l8 3l10 -4l13 2l12 -3l12 -30l2 -9l5 -2l1 -7l17 -40l17 -40l44 -90l6 -19l7 -12h3l7 -17l9 -2l8 5l6 17l3 1l4 13l37 86l6 17l3 1l8 21l7 13l5 3l-1 16l5 9l3 2v3q1 2 1 4l1 11l14 30q0 1 0.5 1t0.5 1q1 6 3 6l13 11l14 1l15 -2l12 1l15 1l4 1l4 -2 l11 -5l1 -9v-2q0 -3 -2 -7l-5 -7l-19 -48l-6 -7l-7 -19v-10q-8 -5 -8 -16l-16 -30l-4 -17l-11 -15l-26 -60l-13 -24l-39 -88l-9 -30l2 -13l-5 -6l4 -10v-2q0 -3 -3 -4l3 -41l-1 -12v-20l2 -14l-3 -10l3 -25v-1l2 -3h-2l-3 -17l5 -21l-3 -19l2 -20l2 -9l-7 -16l-5 -3l-18 -2 h-12l-36 2l-4 3l-3 12l-1 36l1 23l-2 15v14l2 20l-1 7l2 15v5q0 2 -1 2l-1 3v29v66l-3 32l-25 55l-7 12l-8 18l-6 5l-4 14l-21 38l-2 10l-11 20v2l-8 13l-7 19l-7 13l-2 2l-1 1q0 2 2 4l-3 6l-17 34l-7 16q-1 2 -5 14q0 2 -2 4l-9 11l-11 31l-4 7l-2 2q-2 4 -2 7zM112 770 l2 11l-2 14q0 2 3 8q0 3 3 4l8 7l4 1l12 -1l16 -1l4 2h15l6 -1q1 0 5 2l9 -4l2 -2l4 -9v-22l-1 -10l3 -1l-1 -1v-1v-2l-1 -2l-1 -5l2 -7l-1 -15l-7 -11l-31 -1l-10 1l-19 -1l-12 2l-3 1l-7 9l-1 12l3 9zM246 799l5 10l10 4l12 -2l1 2h3h12l14 1l2 2l13 -4q2 1 4 1q1 0 3 -1 t3 -1l-2 -2l6 -3l3 -22l-4 -30l3 -12l-2 -14l-11 -6l-13 1l-22 -2l-4 4l-13 -3l-15 1l-5 6v13l1 3l-1 3l-1 10l1 18z" />
            <glyph unicode="&#x2c6;" horiz-adv-x="494" d="M99 727l5 13l13 12l2 2q0 1 2 3l8 6l11 15l3 4l5 3l1 3l10 8l5 9l14 9l5 10l8 7l6 8q3 3 7 3h1h2l10 3l13 -2l19 1l32 -1q8 0 10 -2l7 -9q0 -1 3 -1q2 -7 10 -8l12 -17l9 -5l6 -10l8 -5l5 -10l11 -3l8 -12l6 -3l7 -12l12 -10l-2 -10h-15l-9 -2h-15l-13 -1l-13 2l-16 -2 l-14 12l-7 11l-10 6l-3 8l-22 21l-12 3q0 -1 -3 -1h-2l1 -1q0 -1 -4 -5t-5 -6l-6 -9l-15 -14l-1 -4l-3 -2h-6l-1 -6l-2 -2l-10 -8l-5 -3l-13 1l-12 -2l-13 3l-18 -3l-6 1h-14q-3 4 -7 4z" />
            <glyph unicode="&#x2dc;" horiz-adv-x="512" d="M99 751l2 13l14 32l9 7l1 5l16 16l29 14l9 3l10 -1l11 2l12 -2l48 -15l15 -6l11 -3l8 -3l12 -2l6 -2l1 2q1 0 1 -1l4 -2l19 5l12 10l7 11l3 8l7 5l17 -6l24 -15l7 -14l-1 -5l-11 -15v-7l-6 -6l-6 -11l-4 -1l1 -4l-11 -7l-12 -13l-31 -8l-13 -1l-32 5q-4 5 -9 7l-9 2 l-10 7l-15 2l-9 5l-21 8l-12 -1l-7 2l-4 -6l-11 -4l-9 -9l-4 -7l-2 -2q-1 -2 -2 -3l-3 -10l-13 -7l-31 12l-12 5z" />
            <glyph unicode="&#x2000;" />
            <glyph unicode="&#x2001;" horiz-adv-x="906" />
            <glyph unicode="&#x2002;" />
            <glyph unicode="&#x2003;" horiz-adv-x="906" />
            <glyph unicode="&#x2004;" horiz-adv-x="302" />
            <glyph unicode="&#x2005;" horiz-adv-x="226" />
            <glyph unicode="&#x2006;" horiz-adv-x="151" />
            <glyph unicode="&#x2007;" horiz-adv-x="151" />
            <glyph unicode="&#x2008;" horiz-adv-x="113" />
            <glyph unicode="&#x2009;" horiz-adv-x="181" />
            <glyph unicode="&#x200a;" horiz-adv-x="50" />
            <glyph unicode="&#x2010;" horiz-adv-x="287" d="M35 309v15l3 3l-2 4v11l2 3q-1 1 -1 2l-2 13l15 8l10 -3l39 4l7 -2l21 3l19 -2l13 3l15 -2l10 2l12 -2l7 2l2 -2l24 2l18 -1q2 0 2 -1l3 -2l-2 -11l3 -15v-13l-4 -9l3 -16l-3 -4l-11 -2l-35 1l-10 1l-6 -2l-13 1l-25 -2l-44 2l-12 -2l-17 -1v3l-3 -1l-33 -1z" />
            <glyph unicode="&#x2011;" horiz-adv-x="287" d="M35 309v15l3 3l-2 4v11l2 3q-1 1 -1 2l-2 13l15 8l10 -3l39 4l7 -2l21 3l19 -2l13 3l15 -2l10 2l12 -2l7 2l2 -2l24 2l18 -1q2 0 2 -1l3 -2l-2 -11l3 -15v-13l-4 -9l3 -16l-3 -4l-11 -2l-35 1l-10 1l-6 -2l-13 1l-25 -2l-44 2l-12 -2l-17 -1v3l-3 -1l-33 -1z" />
            <glyph unicode="&#x2012;" horiz-adv-x="287" d="M35 309v15l3 3l-2 4v11l2 3q-1 1 -1 2l-2 13l15 8l10 -3l39 4l7 -2l21 3l19 -2l13 3l15 -2l10 2l12 -2l7 2l2 -2l24 2l18 -1q2 0 2 -1l3 -2l-2 -11l3 -15v-13l-4 -9l3 -16l-3 -4l-11 -2l-35 1l-10 1l-6 -2l-13 1l-25 -2l-44 2l-12 -2l-17 -1v3l-3 -1l-33 -1z" />
            <glyph unicode="&#x2013;" horiz-adv-x="489" d="M35 305l4 6l-4 18v12l1 12l-1 8l2 8l11 3l9 -3l10 2h16h54l12 -1h20l12 -1l11 2l12 -2l10 1l14 2l8 -3l30 3l14 -3l31 1l45 1h24l8 -2l7 3h37h15l6 -10l-3 -8l3 -3l1 -13v-26l1 -5l-10 -7l-16 2h-41l-13 -2l-12 5l-15 -4l-2 -1h-2l-8 2l-32 1l-11 -3l-60 2l-4 -1l-14 4 l-14 -4l-10 3l-19 -2l-5 -3l-27 2l-3 -2l-20 2l-4 -1h-53h-12h-9q-4 4 -4 5z" />
            <glyph unicode="&#x2014;" horiz-adv-x="1069" d="M35 305l4 6l-4 18v12l1 12l-1 8l2 8l11 3l9 -3l10 2h16h54l12 -1h20l12 -1l11 2l12 -2l10 1l14 2l8 -3l30 3l14 -3l31 1l45 1h24l8 -2l7 3h13h-4h6h22h15l1 -2l9 1h15h54l13 -1h19l13 -1l11 2l11 -2l10 1l14 2l5 -1l6 1l6 -2l22 2l5 -1h56h29h23l1 -1l2 1l6 -1l6 2h21h3 h1h28v-1l9 1l14 -3l31 1l45 1h23l9 -2l7 3h52l6 -10l-3 -8l3 -3v-13l1 -26l1 -5l-10 -7l-16 2h-41l-14 -2l-12 5l-14 -4q-1 -1 -3 -1h-2l-7 2l-32 1l-11 -3l-36 1l-2 -1l-16 2h-8l-2 -1l-3 1h-22l-4 -1l-2 1l-14 -2l-6 2h-7l-5 -3l-9 1h-1h-2l-14 1l-3 -2l-20 2l-5 -1h-52 h-12h-9l-2 2l-12 3l-15 -4l-9 3l-20 -2l-5 -3l-26 2l-4 -2l-19 2l-5 -1h-53h-11h-9l-3 2h-38l-13 -2l-12 5l-15 -4l-2 -1h-2l-8 2l-32 1l-11 -3l-60 2l-4 -1l-14 4l-14 -4l-10 3l-19 -2l-5 -3l-27 2l-3 -2l-20 2l-4 -1h-53h-12h-9q-4 4 -4 5z" />
            <glyph unicode="&#x2018;" horiz-adv-x="180" d="M40 567q4 4 4 5q0 2 -1 3l-3 13l3 15l12 13l19 18l13 16l8 3l12 10l11 -7l9 -9l9 -11l10 -13l-1 -10l-19 -21l-7 -8l1 -12h2l-2 -8h2l-2 -12l2 -12l-1 -5l1 -8l-2 -9l-8 -6l-41 -1h-5l-17 -1l-2 6l-5 2l1 20l-2 15l1 10z" />
            <glyph unicode="&#x2019;" horiz-adv-x="180" d="M34 549l1 10l19 22l7 8l-1 12h-2l2 8h-2l2 12l-2 12l1 5l-1 8l2 9l8 6l41 1l5 -1l17 2l2 -6l5 -2l-1 -20l2 -15l-1 -10l2 -4q-4 -4 -4 -6q0 -1 1 -2l3 -14l-4 -14l-11 -13l-19 -18l-13 -16l-8 -4l-12 -9l-11 7l-9 8l-9 12z" />
            <glyph unicode="&#x201c;" horiz-adv-x="315" d="M40 529l2 37l-1 9v15l4 7l4 7l21 23l11 11l9 11l10 7l6 5q2 2 5 2l9 -3l11 -13l8 -8v-3l6 -5l7 -8v-3l-6 -12l-14 -13l-7 -9l-1 -6h-1l1 -3q0 -1 -2 -5l-1 -16l1 -24l1 -12q-3 -5 -6 -7l-11 -3l-10 1l-2 1q-1 0 -2 -1h-8l-16 1l-15 -2l-11 4zM168 570l3 8l-1 12l9 13 l10 9l10 11l4 4l3 4l8 8l19 23l15 -8l13 -11q6 -5 7 -9l11 -10q2 -2 2 -5t-4 -9l-11 -11l-3 -2l-7 -12l-8 -15v-14l2 -8l-1 -14q-1 -1 -1 -5q0 -3 3 -8l-2 -8l-5 -3h-32h-12l-15 -1h-12l-4 2v36l2 11z" />
            <glyph unicode="&#x201d;" horiz-adv-x="315" d="M34 559l14 14l8 13l2 2l7 7q3 3 3 6q0 2 -2 4q0 4 2 4h1l-1 13l-2 18l1 13l7 7h22l9 2l28 -1l10 -4l3 -9l-1 -31v-9l2 -14l-2 -13l-8 -12l-26 -24l-2 -1q0 -4 -1 -4l-2 -1l-9 -6l-3 -6l-13 -8l-13 -3l-1 4l-8 8v2l-3 2l-10 11l-8 6zM164 557l16 18l10 13l6 14l-3 48l2 8 l4 4h32l17 -2l9 2l13 1l4 -11l-1 -15v-38l1 -15l-4 -10v-3l-7 -6l-21 -23l-4 -5h-2l-2 -4l-4 -1l-6 -9l-4 -4l-9 -10h-9l-10 11l-7 7l-2 5l-8 7v3l-7 5l-3 2z" />
            <glyph unicode="&#x201e;" horiz-adv-x="315" d="M30 -5l5 7l6 6l12 13q9 9 9 18l1 8l-2 5v13l-1 13l1 3l1 13l4 5h39l25 -1q13 0 14 -11l1 -10l-2 -4l2 -50l-8 -11v-2l-14 -14l-22 -27l-1 -1q-1 0 -4 -3l-11 -11l-9 -8l-11 4l-8 13l-3 -2l-11 12l-1 3l-9 10zM164 -12q0 3 2 4l18 21l4 2l5 8l5 15v13v27v12q2 7 14 7l4 -2 l21 1h13l16 -2l9 1l6 -6q0 -1 -1 -3v-1q1 -2 1 -3l-2 -23l1 -11l1 -5l-1 -6v-23l-9 -11l-4 -5l-14 -13l-10 -11l-30 -31h-3q-3 0 -3 1l-4 3l-1 1l-11 11l-4 2l-4 9l-11 6l-6 8q-2 1 -2 4z" />
            <glyph unicode="&#x2022;" horiz-adv-x="226" d="M19 331q0 38 28 65.5t66 27.5q39 0 66 -27.5t27 -65.5q0 -39 -27 -66.5t-66 -27.5q-38 0 -66 27.5t-28 66.5z" />
            <glyph unicode="&#x2026;" horiz-adv-x="1000" d="M121 69l4 13l3 6l28 2l13 -5l5 3l32 1l5 -9v-12l-2 -17l2 -13l1 -20l-1 -3l1 -8q0 -8 -8 -8q-2 0 -4 1l-21 -1h-11l-3 1q-1 1 -3 1q-5 0 -7 -1l-18 -1l-11 1l-2 16l1 1v17l-2 11l3 13zM455 69l3 13l3 6l29 2l12 -5l5 3l33 1l5 -9l-1 -12l-2 -17l2 -13l2 -20l-1 -3v-8 q0 -8 -7 -8q-3 0 -4 1l-22 -1h-10l-4 1q-1 1 -3 1q-5 0 -7 -1l-17 -1l-11 1l-3 16l2 1v17l-3 11l3 13zM788 69l3 13l4 6l28 2l13 -5l5 3l32 1l5 -9l-1 -12l-1 -17l1 -13l2 -20l-1 -3v-8q2 -8 -7 -8q-2 0 -4 1l-21 -1h-11l-4 1q0 1 -3 1q-4 0 -6 -1l-18 -1l-11 1l-2 16l1 1 v17l-2 11l2 13z" />
            <glyph unicode="&#x202f;" horiz-adv-x="181" />
            <glyph unicode="&#x2039;" horiz-adv-x="223" d="M35 337l4 15l7 15l3 15l7 9l5 17q2 4 4 6q5 6 6 9l4 13l8 12l6 13l4 15l12 20l10 11h13l20 1l10 -4l8 4l10 -2l7 -1l2 1q2 -2 3 -4q1 -1 1 -4q0 -1 -1 -2l-3 -3l-9 -18l-1 -6l2 -3h-2l-9 -10l-5 -16l-11 -28l-16 -29v-4l-7 -11l-4 -23l-4 -3l-1 -12l3 -14l7 -11v-17l6 -4 l4 -8l3 -14l2 -5l7 -10l5 -13l4 -14l10 -19v-4l7 -11l6 -13l-1 -1q0 -2 3 -5v-3l-3 -8l-26 -2l-12 3l-26 -1l-14 5l-4 14l-6 7l-1 11q-7 5 -9 13l-4 14l-5 4l-3 16l-8 8l-3 16l-6 12l-4 14l-14 29z" />
            <glyph unicode="&#x203a;" horiz-adv-x="223" d="M34 498q0 3 1 4q2 4 3 4t1 -1l7 1l11 2l8 -4l10 4l20 -1h13l9 -11l12 -20l5 -15l6 -13l7 -12l5 -13q0 -2 5 -9q4 -4 4 -6l5 -17l7 -9l4 -15l6 -15l5 -15l-1 -18l-14 -29l-4 -14l-7 -12l-3 -16l-8 -8l-3 -16l-4 -4l-4 -14q-2 -8 -9 -13l-1 -11l-6 -7l-4 -14l-14 -5l-27 1 l-12 -3l-25 2l-4 8v3q3 3 3 5v1l6 13l6 11v4l11 19l4 14l5 13l6 10l2 5l4 14l3 8l6 4v17l7 11l3 14v12l-4 3l-5 23l-6 11v4l-16 29l-12 28l-4 16l-9 10h-2l1 3v6l-10 18l-2 3q-1 1 -1 2z" />
            <glyph unicode="&#x2044;" horiz-adv-x="542" d="M479 657l14 -3l33 1l4 -3l3 -1q2 0 2 -6v-10l-10 -11l-17 -28l-6 -7h-1l-5 -11q-2 -2 -4 -3q-6 -5 -9 -10l-3 -6l-15 -21l-2 -2l-9 -13l-19 -29l-3 -3l-8 -7l-10 -15l-16 -25l-2 -1l-6 -10l-6 -7l-10 -10l-5 -14l-12 -14l-13 -18l-2 -6l-17 -19l-10 -17l-10 -8l-5 -12 l-6 -8l-30 -44l-5 -4l-15 -27l-7 -8l-10 -13l-7 -18l-11 -4l-1 -14l-3 -3l-11 -2l-1 -5l-3 -10l-7 -12l-11 -11l-7 -9l-10 -18l-6 -8l-6 -9l-10 -12l-6 -10l-6 -11q-1 -1 -3 -2v-2q0 -2 -5 -8l-6 -7l-14 -22q-5 -10 -13 -10l-1 1h-2l-2 3q-2 2 -5 1l-10 -4l-23 2l-16 -1 l-14 -1l-7 9l2 2l-1 7l7 8l8 10l8 12l6 3l6 13l2 1l47 70l8 7l7 10l7 12l24 35l6 8l10 8l6 14l12 15l8 14l27 36l7 9l7 8l10 19l10 11l4 6l4 10l18 23l2 5l9 10l1 7l8 7l20 26l17 30l7 3l9 18l2 3l11 10l3 9l7 9l9 15l11 15l9 15l6 9l4 3l13 22l9 10l5 13l13 12l13 19l14 9 l12 -1z" />
            <glyph unicode="&#x205f;" horiz-adv-x="226" />
            <glyph unicode="&#x20ac;" horiz-adv-x="459" d="M25 279q1 7 2 23.5t3 25.5l16 -1l12 4l5 -3q1 0 2 0.5t2 0.5q7 0 20.5 -0.5t19.5 -0.5v16q0 7 2 21l-2 3q0 2 -0.5 7t-0.5 7h-66q-10 4 -11 4l-1 15l-3 3q1 7 2 23.5t3 25.5l16 -1l12 4l5 -3q1 0 2 0.5t2 0.5q16 -1 47 -1q1 7 0 14l7 10q-1 19 20 65q2 4 11 18.5t12 23.5 l7 4l5 10l10 4q1 7 5 9q2 2 5 4l20 16l11 3q8 10 35 18t38 6q8 5 27 5l13 -5l5 4q14 2 22 2t33.5 -4t28.5 -7q0 -61 1 -74l-11 -5q-30 5 -35 8l-8 7l-5 -4q-5 -2 -16 -2l-8 3q-2 0 -14 -3l-5 3l-2 -2q-20 -5 -28 -4l-8 -7q-10 -2 -16 -5q-43 -23 -70 -90q-1 -2 -2 -7.5 t-1 -6.5q-1 -2 -2 -6t-2 -6q15 0 46.5 0.5t48.5 0.5q1 0 3.5 -0.5t3.5 -0.5l7 2q7 1 8 1h5.5t8 -0.5t5.5 -0.5q6 0 14 2l14 -8l1 -5l2 -5v-12q-2 -2 -2 -4l1 -2q1 -2 1 -3v-14l-2 -1l2 -2l-2 -2l1 -11l-7 -6q-12 0 -17 -1l-2 4q-5 -2 -16 -2t-15 -1l-13 3q-13 -5 -22 -2 l-13 -3l-3 2l-1 -1l-1 1l-68 1q1 -2 1 -29q0 -3 1 -8.5t1 -8.5v-8h104q1 0 3.5 -0.5t3.5 -0.5l7 1q7 2 8 2h5.5t8 -0.5t5.5 -0.5q6 0 14 2l14 -8q0 -1 1.5 -5t1.5 -5v-12q-2 -2 -2 -4q0 -1 1 -3l1 -2v-14l-2 -1l2 -2l-2 -2l1 -11l-7 -6q-12 0 -17 -1l-2 4q-5 -2 -16 -2 t-15 -1l-13 3q-13 -5 -22 -2l-13 -3l-3 2l-1 -1l-1 1l-57 1q1 -2 2.5 -6t1.5 -6v-8l7 -18q1 -3 2 -10.5t3 -11.5q21 -44 33 -59q15 -21 47 -38l3 -8l5 1l16 -3l18 -11l3 2h3l14 -6l10 7q17 -10 24 -10t32 5q12 -3 16 -7q0 -1 2 -8l1 -7q0 -16 -2 -48l-3 -4l-12 -5l-14 1 l-5 -2q-1 0 -4 0.5t-4 0.5q-3 0 -11 -0.5t-11 -0.5q-1 0 -7.5 1t-10.5 1.5t-7 -0.5q-11 1 -60 14l-4 3l-10 3l-8 8l-14 3l-16 14q-20 7 -20 11l1 2l-12 11.5l-14 13.5t-11.5 12.5t-9.5 14.5l1 6q-2 3 -7.5 9t-7.5 10q-6 8 -13 26.5t-12 26.5q0 6 -1.5 11t-4 11.5t-3.5 10.5 q-4 19 -7 37h-7h-68q-10 4 -11 4l-1 15z" />
            <glyph unicode="&#x2122;" horiz-adv-x="926" d="M417 203q0 4 5 9v6h-2v17l2 16l-2 22l2 28l-1 4l-1 12l2 8l-2 47l2 14l2 9l-4 5l3 14l-4 17l3 17l-2 8v40l4 16l-3 24l2 32l-1 14l4 16l-2 21v35l7 5l11 1l1 3l1 -4l25 1l6 -2h31h12l2 -3l7 -7l5 -11l9 -9l5 -10l11 -8l4 -12l9 2l1 -13l3 -1l1 -2q0 -1 3 -4l5 -8l9 -5 l21 -29q4 0 8 -5l9 -13l10 -9l6 -8l7 -2q2 -7 11 -7l1 1l7 9l13 19l8 5l2 6l6 10l8 7l8 11l11 12l23 29l11 8l5 9l9 9l-2 5l4 8l11 7l-2 5l19 4l28 -1l2 2l17 -2l16 1h11l2 -5l4 1l2 -14l-2 -39v-1q0 -5 5 -9l-5 -12v-19l3 -9v-4q0 -4 -1 -6q-1 -1 -1 -2v-15l2 -6l-1 -20 l-2 -14l3 -19l-1 -31l2 -22l-3 -17l4 -15l-1 -14l-2 -5l4 -23l-2 -16l2 -17l-1 -18l2 -12l-2 -18l2 -4l1 -13l-4 -14l2 -12l-1 -26l4 -15l-3 -15l3 -11l-1 -36l3 -103l-3 -10h-16h-53l-7 -1l-3 7l-1 18l3 11l-3 11l2 15l-2 14l3 15l-2 27l-2 32l3 8l-1 35v16l-2 5l1 34 l-1 51l-2 3l2 32l-2 20v34l-1 17l-1 24l-3 10q0 3 4 4v19l-3 13l4 12l-4 13v15v14q0 5 -4 5q-3 0 -6 -3l-3 2l-3 -3l-4 -3l-3 -5l-7 -7l-2 -4l-1 -2l-1 -1l-11 -12l-2 -5l-9 -6l-7 -11l-1 -2l-7 -7l-14 -19v-3l-5 -2l-9 -6l-11 -18l-21 -25v-1l-6 -6q-2 -2 -3 -6l-11 -2 l-4 4l-8 3l-8 12l-12 9l-17 24l-11 10l-7 14l-16 16l-6 11l-3 3l-1 3l-10 6q-4 1 -6 6l-4 7l-5 5l-9 12l-10 9l-3 7l-4 2l-1 -3l-3 3q-5 -5 -5 -7l1 -2v-2l-2 -4l1 -17l-1 -11l3 -3l-1 -3l-2 -11l3 -8l-3 -21l2 -19v-16l-1 -6v-16l-1 -8v-10v-14l-1 -12l1 -3v-18l1 -4l-2 -5 l1 -60l-3 -35l3 -70l1 -30l-1 -14l3 -17l-2 -15l1 -36l-1 -13l1 -25q-5 -1 -9 -5h-12l-6 2q-3 0 -6 -2l-10 1h-17l-10 1l-2 -1h-3l-5 1l-5 10l2 3q-2 1 -2 5v43l4 28l-3 4l1 16v35l-2 4l3 16l-2 36l-1 -1q-1 0 -1 1v3zM10 651q2 6 7 6l1 3l14 2l34 1l8 1l12 -3l6 -1l16 2 l18 -2l7 4l7 -2l55 -1l13 -3l19 2l12 1l14 -3l99 3l8 1l12 -3l6 -10l-2 -2v-42l-8 -12l-1 -7l-13 3l-16 -2l-12 1q-2 6 -6 6q-2 0 -4 -2l-3 -2h-8q-1 -1 -1 -2l-48 1l-11 -5l-5 -16l-1 -48l1 -5l-2 -7l1 -12l1 -72l-2 -12l3 -9l-3 -19l1 -12l-1 -75l1 -27l1 -14l-2 -15 l1 -20v-11l-4 -16l4 -12v-47l2 -13l3 -19v-18l-4 -5v-1v-5q0 -1 1 -2h2v-42v-13l-1 -9l-4 -2l-12 -5l-16 -3h-9l-7 4l-6 -1l-15 -2l-9 3q-2 4 -4 4h-2l2 81v3l-1 15l2 31l-4 48l4 23l-2 43v22l1 17l-1 9l2 32l-4 12l2 37l-1 42l-1 83v18l3 12q-2 1 -4 6l2 18l-5 4v11 q-1 6 -5 14l-12 1h-37l-15 1l-18 -3l-24 3l-2 -3l-14 1l-9 5l-6 9v42z" />
            <glyph unicode="&#xe000;" horiz-adv-x="660" d="M0 660h660v-660h-660v660z" />
            <glyph unicode="&#xfb01;" horiz-adv-x="461" d="M30 581l3 16l-2 14l2 13l-2 24l5 8l17 5h41l4 -1l13 1l7 -3l8 5l60 -1l3 -3l5 3h7l13 1l13 -2l1 -19l1 -30l-3 -14l-2 -4h-5l-12 3l-15 -3l-2 2l-43 1q-1 1 -2 0t-3 -1t-3 1l-5 2q-2 0 -2 -3v1l-14 -1l-2 -30l3 -10l-1 -5q1 0 3 1h2q4 0 5 -4l5 1l13 2q1 0 3 -2 q1 -1 2 -1h1l2 1q5 2 6 1l13 -3l16 3h12h43l24 3q0 -3 2 -3q1 1 1 2h22q1 0 1 -1q1 -1 4 -2l2 -1q1 0 2 -1v-2v-52l-6 -9l-3 -2h-31l-10 4l-4 -1v-3l-58 -1l-9 7q-6 -6 -9 -6t-6 4l-1 -3l-25 -2l-9 1l-11 -2q-2 0 -5 -7q0 -1 -1 -1l1 -11l-2 -1l2 -19l-2 -9l3 -3l-1 -27 l-2 -17l1 -17l-1 -16l2 -4l1 -99l-4 -12l6 -7v-5l-5 -11q4 -3 4 -7q0 -9 -7 -10l7 -10l-1 -73l3 -9l2 -75l-1 -13q0 -15 -6 -15l-15 -3l-35 1l-18 -1q-7 0 -9 8l-1 30l2 15l-2 6l3 35l-2 13l1 31l-2 17l1 31l-2 18l3 9q0 2 -3 5l1 11l2 7l-3 10l2 32l-1 56l1 15l-2 15l1 20 v18l-2 21l4 4l1 10l-2 2v-4l-4 4l1 10l1 60l-3 5l1 14l-2 18v15l2 6zM342 605l2 12l-2 21v3l5 12l-4 -2v2q0 6 8 8h9h19q1 0 2 -1l8 1h19l4 2q14 -1 14 -6l1 -13l-2 -16l2 -14l-4 -18l2 -17l-2 -10l1 -14l1 -50v-77v-10l-3 -8l5 -28l-1 -85v-16l-1 -30q4 -5 4 -12l-1 -54 v-55l2 -22l-2 -17l2 -15l-2 -6l1 -34l3 -11v-17l-4 -7l-10 -1l-12 -1l-17 1l-31 -2h-2q-10 0 -10 7v1l2 19v33l2 17q0 3 -4 8v11l3 13l-1 15l2 6l-3 25l2 24l-2 22l2 16l-1 46l-1 35l-2 19l3 33l-3 40l2 20l-2 28l-2 74l3 16l-2 27l1 25l-2 4v19z" />
            <glyph unicode="&#xfb02;" horiz-adv-x="673" d="M30 581l3 16l-2 14l2 13l-2 24l5 8l17 5h41l4 -1l13 1l7 -3l8 5l60 -1l3 -3l5 3h7l13 1l13 -2l1 -19l1 -30l-3 -14l-2 -4h-5l-12 3l-15 -3l-2 2l-43 1q-1 1 -2 0t-3 -1t-3 1l-5 2q-2 0 -2 -3v1l-14 -1l-2 -30l3 -10l-1 -5q1 0 3 1h2q4 0 5 -4l5 1l13 2q1 0 3 -2 q1 -1 2 -1h1l2 1q5 2 6 1l13 -3l16 3h12h43l24 3q0 -3 2 -3q1 1 1 2h22q1 0 1 -1q1 -1 4 -2l2 -1q1 0 2 -1v-2v-52l-6 -9l-3 -2h-31l-10 4l-4 -1v-3l-58 -1l-9 7q-6 -6 -9 -6t-6 4l-1 -3l-25 -2l-9 1l-11 -2q-2 0 -5 -7q0 -1 -1 -1l1 -11l-2 -1l2 -19l-2 -9l3 -3l-1 -27 l-2 -17l1 -17l-1 -16l2 -4l1 -99l-4 -12l6 -7v-5l-5 -11q4 -3 4 -7q0 -9 -7 -10l7 -10l-1 -73l3 -9l2 -75l-1 -13q0 -15 -6 -15l-15 -3l-35 1l-18 -1q-7 0 -9 8l-1 30l2 15l-2 6l3 35l-2 13l1 31l-2 17l1 31l-2 18l3 9q0 2 -3 5l1 11l2 7l-3 10l2 32l-1 56l1 15l-2 15l1 20 v18l-2 21l4 4l1 10l-2 2v-4l-4 4l1 10l1 60l-3 5l1 14l-2 18v15l2 6zM341 574q0 3 1 5q1 0 1 1q2 2 2 4v4l-1 11l-2 32v22l4 6l13 1l9 -2l2 2l14 2l2 -3l4 2l19 -2l11 1l7 -4l2 -28l-2 -47l1 -15l-2 -25v-21l2 -14l-3 -12l2 -12v-34v-51l-1 -15l1 -24l2 -43l-1 -32v-15 l-1 -11l3 -14l-4 -18l2 -81v-34l2 -1l-2 -9v-11l2 -11l10 -2q4 2 8 2q3 0 4 -1l9 -4l14 4l46 -1l15 2l24 -2l13 2l10 -3l10 1l12 -3l11 5l17 -1h15l12 -4l2 -5l-1 -35q0 -1 1 -1q0 -1 1 -2q1 0 1 -2q0 -1 -2 -3v-2l-2 -15l-6 -8h-20q-4 4 -7 4h-1l-10 -4l-14 1l-10 -1h-16 l-3 2l-11 -1l-60 -2q-1 0 -2 1q-2 2 -4 2h-1q-1 -1 -2 -1l-3 -1l-12 -3l-30 2h-17l-10 3l-15 -5l-14 1l-10 -1l-7 3h-17l-10 4l-3 11l-1 16l3 25l-1 65l1 30l-1 31l2 16l-3 15l2 31l-3 18l4 11l-2 9l1 43l-1 43l4 13l-2 12l-3 43l3 9l-1 14l-3 14l5 13v1q0 4 -6 9l-1 29 l1 23l1 14l-1 3l1 1l-2 4q-1 1 -1 4z" />
            </font>
</defs>
</svg>
